Emmylou Harris - Quarter Moon In A Ten Cent Town (1978) (Bonus Tracks)

Download Now

Emmylou Harris - Quarter Moon In A Ten Cent Town (1978) (Bonus Tracks)

Emmylou Harris - Quarter Moon In A Ten Cent Town (1978) (Bonus Tracks)
Country | 1cd | EAC Rip | Wv + Cue + Log | covers
Warner R2 78111 | rem: 2004 | 295Mb

Quarter Moon in a Ten Cent Town is a transitional effort that bridges the curveballs of Emmylou Harris' earliest solo work with the more traditional country albums that comprise the bulk of the second phase of her career. For the first time, she covers no Gram Parsons tunes or pop music chestnuts, relying instead on newly exited Hot Band member Rodney Crowell for two songs ("Leaving Louisiana in the Broad Daylight" and "I Ain't Living Long Like This") and Dolly Parton for another (the devastating "To Daddy"); the highlight is a gorgeous cover of Jesse Winchester's "Defying Gravity.
" ~Allmusic

Track listing
01. Easy From Now On (3:07)
02. Two More Bottles Of Wine (3:07)
03. To Daddy (2:47)
04. My Songbird (3:10)
05. Leaving Louisiana In The Broad Daylight (4:21)
06. Defying Gravity (4:16)
07. I Ain't Living Long Like This (4:06)
08. One Paper Kid (2:58)
09. Green Rolling Hills (3:40)
10. Burn That Candle (4:27)
11. New Cut Road (4:11)
12. LaCassine Special (2:44)
~ (42:55)

Personnel
- Brian Ahern: Acoustic Guitar, 12-String Guitar, Gut-String Guitar, Percussion, Baby Bottle
- Dianne Brooks: Backing Vocals
- James Burton: Electric Guitar
- Rodney Crowell: Acoustic Guitar, Electric Guitar
- Rick Danko: Fiddle, Backing Vocals
- Hank DeVito: Pedal Steel
- Emory Gordy, Jr.: Bass
- Glen D. Hardin: Piano, Electric Piano, String Arrangements
- Emmylou Harris: Vocals, Acoustic Guitar
- Garth Hudson: Accordion, Baritone Sax
- Nicolette Larson: Backing Vocals
- Albert Lee: Acoustic Guitar, Electric Guitar, Piano, Mandolin
- Willie Nelson: Duet Vocals
- Mickey Raphael: Harmonica
- Ricky Skaggs: Fiddle, Viola
- John Ware: Drums, Percussion

Exact Audio Copy V0.99 prebeta 3 from 28. July 2007

EAC extraction logfile from 19. February 2008, 17:40

Emmylou Harris / Quarter Moon In A Ten Cent Town (2004)

Used drive : _NEC DVD_RW ND-3500AG Adapter: 0 ID: 2

Read mode : Secure
Utilize accurate stream : Yes
Defeat audio cache : Yes
Make use of C2 pointers : No

Read offset correction

: 48
Overread into Lead-In and Lead-Out : No
Fill up missing offset samples with silence : Yes
Delete leading and trailing silent blocks : No
Null samples used in CRC calculations : Yes
Used interface
: Installed external ASPI interface

Used output format : Internal WAV Routines
Sample format : 44.100 Hz; 16 Bit; Stereo

TOC of the extracted CD Track | Start | Length | Start sector | End sector
--1 | 0:00.00 | 3:07.33 | 0 | 14057 2 | 3:07.33 | 3:07.06 | 14058 | 28088 3 | 6:14.39 | 2:47.27 | 28089 | 40640 4 | 9:01.66 | 3:09.57 | 40641 | 54872 5 | 12:11.48 | 4:20.45 | 54873 | 74417 6 | 16:32.18 | 4:16.12 | 74418 | 93629 7 | 20:48.30 | 4:06.35 | 93630 | 112114 8 | 24:54.65 | 2:57.58 | 112115 | 125447 9 | 27:52.48 | 3:40.09 | 125448 | 141956
10 | 31:32.57 | 4:27.32 | 141957 | 162013
11 | 36:00.14 | 4:10.56 | 162014 | 180819
12 | 40:10.70 | 2:44.22 | 180820 | 193141

Range status and errors

Selected range Filename K:\Music\Emmylou Harris\04 Quarter Moon In A Ten Cent Town\Emmylou Harris - Quarter Moon In A Ten Cent Town (2004).wav Peak level 100.0 %
Range quality 99.9 %
Copy CRC 867538B3
Copy OK

No errors occurred

End of status report

[CUETools log; Date: 2015.10.13. 14:26:56; Version: 2.1.5]
[CTDB TOCID: LHHHlAUTXK9srM.WEaY2JYpgUtY-] found.
Track | CTDB Status
1 | (26/26) Accurately ripped
2 | (26/26) Accurately ripped
3 | (26/26) Accurately ripped
4 | (26/26) Accurately ripped
5 | (26/26) Accurately ripped
6 | (26/26) Accurately ripped
7 | (26/26) Accurately ripped
8 | (26/26) Accurately ripped
9 | (26/26) Accurately ripped
10 | (26/26) Accurately ripped
11 | (26/26) Accurately ripped
12 | (25/26) Accurately ripped
[AccurateRip ID: 0012a255-00b062a9-ab0a0f0c] found.
Track [ CRC | V2 ] Status
01 [f85bca46|f34bb77b] (22+08/70) Accurately ripped
02 [77b3ee3a|e6514fbb] (22+08/70) Accurately ripped
03 [595a2d53|646780ab] (22+08/70) Accurately ripped
04 [0934a7e0|1f7a0510] (23+08/71) Accurately ripped
05 [9f525b90|7025e0a6] (23+08/70) Accurately ripped
06 [72d4a6db|42be5ec6] (22+08/69) Accurately ripped
07 [54a730e0|a3fa0f26] (23+08/71) Accurately ripped
08 [73fd56ea|5e8890b8] (23+08/70) Accurately ripped
09 7b5baf5|bdfdb43d (24+08/71) Accurately ripped
10 [86bb0134|85c9322e] (24+08/71) Accurately ripped
11 2e88884|6c2f9a4c (24+08/68) Accurately ripped
12 [55c79148|53b139da] (24+07/66) Accurately ripped
Offsetted by 6:
01 [f4c8f8a2] (19/70) Accurately ripped
02 [59da8eee] (19/70) Accurately ripped
03 [93d8bfe3] (19/70) Accurately ripped
04 [2e64d1ad] (19/71) Accurately ripped
05 [97f9bf08] (19/70) Accurately ripped
06 [76a73400] (19/69) Accurately ripped
07 [79b6819b] (19/71) Accurately ripped
08 [f5243087] (19/70) Accurately ripped
09 [0094d636] (19/71) Accurately ripped
10 [7838569a] (19/71) Accurately ripped
11 [fadf1d65] (17/68) Accurately ripped
12 [ee66ebb9] (16/66) Accurately ripped

Track Peak [ CRC32 ] [W/O NULL] [ LOG ]
-- 100,0 [867538B3] [0B014353] CRC32
01 98,8 [5D143155] 6E46310
02 95,6 [A39E6A0F] [ABB65ED6]
03 98,8 [A889A785] [91B73493]
04 92,6 [46D45495] [D589D283]
05 93,9 [15B1D599] [89A8167A]
06 80,1 [8101A852] [550EAAD1]
07 96,2 [3A2788A0] [2F8F1A81]
08 76,6 [653E48E6] [F02C2FC3]
09 97,1 [08213874] [E0D2046D]
10 100,0 [8DD24DCA] [76E2E1BB]
11 83,4 [40176594] [3BF6E591]
12 89,7 [FF275D55] [E65B5871]

original uploader unknown, found in my archive
password: asd
DOWNLOAD:
Buy Premium From My Links To Get Resumable Support & Max Speed & To Support Me


Links are Interchangeable - No Password

Direct Download

Tags: Emmylou, Harris, Quarter, Tracks

Emmylou Harris - Quarter Moon In A Ten Cent Town (1978) (Bonus Tracks) Download via Hotfile Rapidshare Fileserve Megaupload & FileSonic, Emmylou Harris - Quarter Moon In A Ten Cent Town (1978) (Bonus Tracks) free torrent downloads included crack, serial, keygen.


Attention!Information

Members of Guest cannot leave comments.