Gary Brooker (ex Procol Harum) - No More Fear Of Flying (1979)

Download Now

Gary Brooker (ex Procol Harum) - No More Fear Of Flying (1979)

Gary Brooker (ex Procol Harum) - No More Fear Of Flying (1979)
EAC | FLAC | Tracks (Cue&Log) ~ 252 Mb (incl 5%) | Mp3 (CBR320) ~ 127 Mb (incl 5%) | Scans included
Genre: Rock, Pop Rock | Label: Line Records | # LICD 9.00046 O | Time: 00:38:03

"After 10 albums with Procol Harum, lead singer, composer, and keyboard player Gary Brooker launched his solo career with this album. Of course, there were Brooker's familiar characteristics -- the steady piano work, the butterscotch soul voice. But he switched lyric partners for this set (except for the title track), trading longtime Procol wordsmith Keith Reid for Pete Sinfield, who had performed the same function for Procol contemporaries King Crimson and Emerson, Lake and Palmer. Brooker also tried a couple of tunes by Stiff Records pub-rocker Mickey Jupp (Jupp's versions are better) and Murray Head's "Say It Ain't So, Joe" (Roger Daltrey's version is better). The result was a varied set that succeeded in sounding like something other than Procol Harum's 11th album, although it did not demonstrate that Gary Brooker solo was going to be an improvement over the group."



Tracklist:

01. Savannah (03:35)
02. Pilot (03:51)
03. No More Fear Of Flying (04:43)
04. Get Up And Dance (02:54)
05. Give Me Something To Remember You By (04:18)
06. Say It Ain't So Joe (03:49)
07. Old Manhattan Melodies (03:37)
08. Angelina (03:35)
09. Let Me In (03:15)
10. Switchboard Susan (04:22)


Exact Audio Copy V1.0 beta 3 from 29. August 2011

EAC extraction logfile from 19. November 2011, 16:46

Gary Brooker / No More Fear Of Flying (LICD 9.00046 O)

Used drive : PIONEER DVD-RW DVR-219L Adapter: 2 ID: 0

Read mode : Secure
Utilize accurate stream : Yes
Defeat audio cache : Yes
Make use of C2 pointers : No

Read offset correction

: 6
Overread into Lead-In and Lead-Out : No
Fill up missing offset samples with silence : Yes
Delete leading and trailing silent blocks : No
Null samples used in CRC calculations : Yes
Used interface
: Native Win32 interface for Win NT & 2000
Gap handling
: Appended to previous track

Used output format : User Defined Encoder
Selected bitrate : 1024 kBit/s
Quality : High
Add ID3 tag : No
Command line compressor : C:\Program Files\Exact Audio Copy\FLAC\FLAC.EXE
Additional command line options : -6 -V -T "ARTIST=%artist%" -T "TITLE=%title%" -T "ALBUM=%albumtitle%" -T "DATE=%year%" -T "TRACKNUMBER=%tracknr%" -T "GENRE=%genre%" -T "COMMENT=%comment%" %source% -o %dest%

TOC of the extracted CD Track | Start | Length | Start sector | End sector
--1 | 0:00.00 | 3:35.00 | 0 | 16124 2 | 3:35.00 | 3:51.00 | 16125 | 33449 3 | 7:26.00 | 4:43.62 | 33450 | 54736 4 | 12:09.62 | 2:54.13 | 54737 | 67799 5 | 15:04.00 | 4:18.00 | 67800 | 87149 6 | 19:22.00 | 3:49.62 | 87150 | 104386 7 | 23:11.62 | 3:37.50 | 104387 | 120711 8 | 26:49.37 | 3:35.25 | 120712 | 136861 9 | 30:24.62 | 3:15.38 | 136862 | 151524
10 | 33:40.25 | 4:22.50 | 151525 | 171224

Track 1 Filename H:\dafnaplus\Gary Brooker - No More Fear Of Flying\01 Savannah.wav Pre-gap length 0:00:02.00 Peak level 71.7 %
Extraction speed 0.9 X
Track quality 100.0 %
Test CRC 20670CBB
Copy CRC 20670CBB
Accurately ripped (confidence 2) [6D087468] (AR v1)
Copy OK

Track 2 Filename H:\dafnaplus\Gary Brooker - No More Fear Of Flying\02 Pilot.wav Peak level 84.0 %
Extraction speed 1.0 X
Track quality 100.0 %
Test CRC C78EE4D5
Copy CRC C78EE4D5
Accurately ripped (confidence 2) [1946E16C] (AR v1)
Copy OK

Track 3 Filename H:\dafnaplus\Gary Brooker - No More Fear Of Flying\03 No More Fear Of Flying.wav Peak level 87.3 %
Extraction speed 1.0 X
Track quality 99.9 %
Test CRC DF88DE7C
Copy CRC DF88DE7C
Accurately ripped (confidence 2) [CCEDD1B0] (AR v1)
Copy OK

Track 4 Filename H:\dafnaplus\Gary Brooker - No More Fear Of Flying\04 Get Up And Dance.wav Peak level 86.3 %
Extraction speed 1.2 X
Track quality 100.0 %
Test CRC 137ECC35
Copy CRC 137ECC35
Accurately ripped (confidence 2) [A931A151] (AR v1)
Copy OK

Track 5 Filename H:\dafnaplus\Gary Brooker - No More Fear Of Flying\05 Give Me Something To Remember You By.wav Peak level 86.4 %
Extraction speed 1.3 X
Track quality 100.0 %
Test CRC DF0C075B
Copy CRC DF0C075B
Accurately ripped (confidence 2) [379548EC] (AR v1)
Copy OK

Track 6 Filename H:\dafnaplus\Gary Brooker - No More Fear Of Flying\06 Say It Ain't So Joe.wav Peak level 78.0 %
Extraction speed 1.4 X
Track quality 100.0 %
Test CRC 63971547
Copy CRC 63971547
Accurately ripped (confidence 2) [C700F80E] (AR v1)
Copy OK

Track 7 Filename H:\dafnaplus\Gary Brooker - No More Fear Of Flying\07 Old Manhattan Melodies.wav Pre-gap length 0:00:00.01 Peak level 78.9 %
Extraction speed 1.4 X
Track quality 100.0 %
Test CRC D2E268FD
Copy CRC D2E268FD
Accurately ripped (confidence 2) [8D815F8F] (AR v1)
Copy OK

Track 8 Filename H:\dafnaplus\Gary Brooker - No More Fear Of Flying\08 Angelina.wav Peak level 72.5 %
Extraction speed 1.5 X
Track quality 100.0 %
Test CRC DEB78BE2
Copy CRC DEB78BE2
Accurately ripped (confidence 2) [FAA2303A] (AR v1)
Copy OK

Track 9 Filename H:\dafnaplus\Gary Brooker - No More Fear Of Flying\09 Let Me In.wav Peak level 72.0 %
Extraction speed 1.3 X
Track quality 99.9 %
Test CRC C8571308
Copy CRC C8571308
Accurately ripped (confidence 2) [5F34DF10] (AR v1)
Copy OK

Track 10 Filename H:\dafnaplus\Gary Brooker - No More Fear Of Flying\10 Switchboard Susan.wav Peak level 92.4 %
Extraction speed 1.7 X
Track quality 100.0 %
Test CRC 404CC377
Copy CRC 404CC377
Accurately ripped (confidence 2) [8399F428] (AR v1)
Copy OK

All tracks accurately ripped

No errors occurred

End of status report

==== Log checksum 92E2A340AB4A283517B30CFC9EE64DBC468C7EF9826FE4CBDF6DD5F42DAAE5F2 ====

foobar2000 1.2 / Dynamic Range Meter 1.1.1
log date: 2015-10-15 00:06:59

Analyzed: Gary Brooker / No More Fear Of Flying (LICD 9.00046 O)

DR Peak RMS Duration Track

DR11 -2.88 dB -16.43 dB 3:35 01-Savannah
DR11 -1.51 dB -16.93 dB 3:51 02-Pilot
DR11 -1.17 dB -14.93 dB 4:44 03-No More Fear Of Flying
DR12 -1.28 dB -15.27 dB 2:54 04-Get Up And Dance
DR11 -1.27 dB -14.82 dB 4:18 05-Give Me Something To Remember You By
DR11 -2.16 dB -16.85 dB 3:50 06-Say It Ain't So Joe
DR11 -2.06 dB -16.92 dB 3:38 07-Old Manhattan Melodies
DR12 -2.78 dB -17.47 dB 3:35 08-Angelina
DR12 -2.85 dB -17.49 dB 3:16 09-Let Me In
DR13 -0.68 dB -15.40 dB 4:23 10-Switchboard Susan

Number of tracks: 10
Official DR value: DR12

Samplerate: 44100 Hz
Channels: 2
Bits per sample: 16
Bitrate: 814 kbps
Codec: FLAC

Gary Brooker (ex Procol Harum) - No More Fear Of Flying (1979)

Gary Brooker (ex Procol Harum) - No More Fear Of Flying (1979)

All thanks to original releaser - dafnaplus
Password: designol

DOWNLOAD LINKS
(Premium Recommended)


Links are Interchangeable - No Password - Single Extraction

Direct Download

Tags: Brooker, Procol, Flying

Gary Brooker (ex Procol Harum) - No More Fear Of Flying (1979) Download via Hotfile Rapidshare Fileserve Megaupload & FileSonic, Gary Brooker (ex Procol Harum) - No More Fear Of Flying (1979) free torrent downloads included crack, serial, keygen.


Attention!Information

Members of Guest cannot leave comments.