John Patton - Minor Swing (1994) {DIW Records Japan Mini LP} (ft. John Zorn)

Download Now


John Patton - Minor Swing (1994) {DIW Records Japan Mini LP} (ft. John Zorn)
[b]John Patton - Minor Swing (1994) {DIW Records Japan Mini LP} (ft. John Zorn)[/b]
EAC rip (secure mode) | FLAC (tracks)+CUE+LOG -> 372 Mb | MP3 @320 -> 127 Mb
Full Artwork @ 300 dpi (jpg) -> 15 Mb | 5% repair rar
© 1995 DIW Records / Disk Union | DIW-896
Jazz / Soul Jazz / Hard Bop / Organ

"An organ trio fronted by an avant-garde alto saxophonist like John Zorn isn't usually a combination associated with groove oriented soul-jazz. Luckily, on Minor Swing, organist Big John Patton and John Zorn encourage taking chances and opening the music up, while not going so far out as to overwhelm the intended fundamental groove. Zorn sounds comfortable and content, always maintaining his individuality, taking a cue from tenor saxophonist Harold Alexander who played in a similar "out" style on Patton's 1968 session for Blue Note, Boogaloo."

John Patton - Minor Swing (1994) {DIW Records Japan Mini LP} (ft. John Zorn)


Personnel:
John Patton - organ
John Zorn - alto saxophone
Ed Cherry - guitar
Kenny Wollesen - drums

tracklist:
01 - The Way I Feel
02 - Tyrone
03 - Minor Swing
04 - The Rock
05 - Along Came John
06 - Lite Hit
07 - B Men Thel

Exact Audio Copy V1.0 beta 3 from 29. August 2011

EAC extraction logfile from 12. February 2015, 23:24

John Patton / Minor Swing

Used drive : SONY DVD RW DRU-810A Adapter: 1 ID: 0

Read mode : Secure
Utilize accurate stream : Yes
Defeat audio cache : Yes
Make use of C2 pointers : No

Read offset correction

: 618
Overread into Lead-In and Lead-Out : No
Fill up missing offset samples with silence : Yes
Delete leading and trailing silent blocks : No
Null samples used in CRC calculations : Yes
Used interface
: Native Win32 interface for Win NT & 2000
Gap handling
: Appended to previous track

Used output format : User Defined Encoder
Selected bitrate : 128 kBit/s
Quality : High
Add ID3 tag : No
Command line compressor : C:\Program Files (x86)\Exact Audio Copy\Flac\flac.exe
Additional command line options : -8 -V -T "ARTIST=%artist%" -T "TITLE=%title%" -T "ALBUM=%albumtitle%" -T "DATE=%year%" -T "TRACKNUMBER=%tracknr%" -T "TOTALTRACKS=%numtracks%" -T "GENRE=%genre%" -T "ALBUMARTIST=%albumartist%" -T "ALBUM ARTIST=%albumartist%" -T "COMMENT=EAC Secure Mode, Test & Copy, AccurateRip, FLAC -8" %source%

TOC of the extracted CD Track | Start | Length | Start sector | End sector
--1 | 0:00.00 | 12:05.50 | 0 | 54424 2 | 12:05.50 | 6:31.60 | 54425 | 83809 3 | 18:37.35 | 8:35.70 | 83810 | 122504 4 | 27:13.30 | 6:26.42 | 122505 | 151496 5 | 33:39.72 | 5:13.63 | 151497 | 175034 6 | 38:53.60 | 7:13.37 | 175035 | 207546 7 | 46:07.22 | 7:22.63 | 207547 | 240759

Track 1 Filename F:\New Rips\John Patton - Minor Swing (1994) [FLAC]\01 - The Way I Feel.wav Pre-gap length 0:00:02.00 Peak level 92.8 %
Extraction speed 5.7 X
Track quality 100.0 %
Test CRC 289A5F03
Copy CRC 289A5F03
Accurately ripped (confidence 6) [F41850CF] (AR v2)
Copy OK

Track 2 Filename F:\New Rips\John Patton - Minor Swing (1994) [FLAC]\02 - Tyrone.wav Peak level 98.4 %
Extraction speed 6.5 X
Track quality 100.0 %
Test CRC 9AD7FB3F
Copy CRC 9AD7FB3F
Accurately ripped (confidence 6) [94206C51] (AR v2)
Copy OK

Track 3 Filename F:\New Rips\John Patton - Minor Swing (1994) [FLAC]\03 - Minor Swing.wav Peak level 98.8 %
Extraction speed 6.7 X
Track quality 99.9 %
Test CRC 175869B0
Copy CRC 175869B0
Accurately ripped (confidence 6) [F632EAE4] (AR v2)
Copy OK

Track 4 Filename F:\New Rips\John Patton - Minor Swing (1994) [FLAC]\04 - The Rock.wav Peak level 97.2 %
Extraction speed 7.6 X
Track quality 100.0 %
Test CRC 649C693A
Copy CRC 649C693A
Accurately ripped (confidence 6) [2FE74449] (AR v2)
Copy OK

Track 5 Filename F:\New Rips\John Patton - Minor Swing (1994) [FLAC]\05 - Along Came John.wav Peak level 100.0 %
Extraction speed 7.9 X
Track quality 100.0 %
Test CRC AE03A505
Copy CRC AE03A505
Accurately ripped (confidence 6) [D242C909] (AR v2)
Copy OK

Track 6 Filename F:\New Rips\John Patton - Minor Swing (1994) [FLAC]\06 - Lite Hit.wav Peak level 98.6 %
Extraction speed 8.5 X
Track quality 100.0 %
Test CRC B676FDCC
Copy CRC B676FDCC
Accurately ripped (confidence 6) [E6D1BB6A] (AR v2)
Copy OK

Track 7 Filename F:\New Rips\John Patton - Minor Swing (1994) [FLAC]\07 - B Men Thel.wav Peak level 91.6 %
Extraction speed 9.0 X
Track quality 100.0 %
Test CRC AA879295
Copy CRC AA879295
Accurately ripped (confidence 6) [2C4C5872] (AR v2)
Copy OK

All tracks accurately ripped

No errors occurred

End of status report

- CUETools DB Plugin V2.1.3

[CTDB TOCID: LbbWLHiE4pRarHx7J8wQgvQQ43Y-] found, Submit result: LbbWLHiE4pRarHx7J8wQgvQQ43Y- has been confirmed
[1f44760e] (2/2) Accurately ripped

==== Log checksum C2F08C237F5909A00C32870A8DBBB8C75BD24F570DE3E42F5E1FE7D911DC7400 ====

John Patton - Minor Swing (1994) {DIW Records Japan Mini LP} (ft. John Zorn)

John Patton - Minor Swing (1994) {DIW Records Japan Mini LP} (ft. John Zorn)


Download links:
(Buy premium account via my links to have best speed and resumable ability)


Interchangeable links - No Pass

Direct Download

Tags: Patton, Records

John Patton - Minor Swing (1994) {DIW Records Japan Mini LP} (ft. John Zorn) Download via Hotfile Rapidshare Fileserve Megaupload & FileSonic, John Patton - Minor Swing (1994) {DIW Records Japan Mini LP} (ft. John Zorn) free torrent downloads included crack, serial, keygen.


Attention!Information

Members of Guest cannot leave comments.