Dave Weckl Band - Synergy (1999) {Stretch}

Download Now

Dave Weckl Band - Synergy (1999) {Stretch}

Dave Weckl Band - Synergy (1999) {Stretch}
EAC 0.99pb5 | FLAC tracks level 8 | Cue+Log+M3U | Full Scans 300dpi | 459MB + 5% Recovery
Genre: Fusion

"Although Dave Weckl is an excellent drummer, not all of his recordings have been excellent. In the 1990s, you never knew if you would find something exciting or mundane on a Weckl album. But this fusion/soul-jazz disc turned out to be a pleasant surprise. Synergy, in fact, is the drummer's most consistently satisfying CD. Excessive producing was a major problem on some of his previous releases, but this time he generally avoids overproducing and goes for a real band sound. Joined by tenor and soprano saxman Brandon Fields, keyboardist Jay Oliver, guitarist Buzz Feiten, and electric bassist Tom Kennedy, Weckl has a solid team to work with and emphasizes improvisation and honest-to-God playing not high-tech studio gloss."

Track List
01. High Life 7:45
02. Panda's Dream 5:22
03. Swunk 4:48
04. A Simple Player 4:52
05. Cape Fear 6:54
06. Wet Skin 6:10
07. Synergy 7:13
08. Where's My Paradise 4:51
09. Lucky Seven 5:55
10. Swamp Thing 5:22
11. Cultural Concurrence 3:25
12. Tower '99 6:07

musicians
Dave Weckl - drums, tambourine, percussion
Brandon Fields - soprano, tenor & baritone saxophones, keyboards, synthesizer
Jay Oliver - organ, keyboards, synthesizer
Buzz Feiten - electric, nylon string & steel string guitars
Tom Kennedy - bass

Produced by Dave Weckl

Exact Audio Copy V0.99 prebeta 5 from 4. May 2009

EAC extraction logfile from 7. January 2010, 5:05

Dave Weckl Band / Synergy

Used drive : _NEC DVD_RW ND-4550A Adapter: 0 ID: 1

Read mode : Secure
Utilize accurate stream : Yes
Defeat audio cache : Yes
Make use of C2 pointers : No

Read offset correction

: 48
Overread into Lead-In and Lead-Out : No
Fill up missing offset samples with silence : Yes
Delete leading and trailing silent blocks : No
Null samples used in CRC calculations : Yes
Used interface
: Installed external ASPI interface
Gap handling
: Appended to previous track

Used output format : User Defined Encoder
Selected bitrate : 320 kBit/s
Quality : High
Add ID3 tag : No
Command line compressor : C:\Program Files\Exact Audio Copy\Flac\flac.exe
Additional command line options : -V -8 -T "artist=%a" -T "title=%t" -T "album=%g" -T "date=%y" -T "tracknumber=%n" -T "genre=%m" %s

TOC of the extracted CD Track | Start | Length | Start sector | End sector
--1 | 0:00.00 | 7:48.40 | 0 | 35139 2 | 7:48.40 | 5:22.47 | 35140 | 59336 3 | 13:11.12 | 4:51.23 | 59337 | 81184 4 | 18:02.35 | 4:55.10 | 81185 | 103319 5 | 22:57.45 | 6:56.10 | 103320 | 134529 6 | 29:53.55 | 6:12.40 | 134530 | 162469 7 | 36:06.20 | 7:15.10 | 162470 | 195104 8 | 43:21.30 | 4:54.05 | 195105 | 217159 9 | 48:15.35 | 5:57.67 | 217160 | 244001
10 | 54:13.27 | 5:24.10 | 244002 | 268311
11 | 59:37.37 | 3:25.58 | 268312 | 283744
12 | 63:03.20 | 6:07.12 | 283745 | 311281

Track 1 Filename D:\Torrents\Dave Weckl Band - 1999 - Synergy [FLAC - 100% Log - CUE]\01 - High Life.wav Pre-gap length 0:00:02.00 Peak level 100.0 %
Track quality 99.9 %
Test CRC 9BBED65D
Copy CRC 9BBED65D
Accurately ripped (confidence 2) [0FC92216]
Copy OK

Track 2 Filename D:\Torrents\Dave Weckl Band - 1999 - Synergy [FLAC - 100% Log - CUE]\02 - Panda's Dream.wav Pre-gap length 0:00:02.10 Peak level 100.0 %
Track quality 100.0 %
Test CRC 1407E737
Copy CRC 1407E737
Accurately ripped (confidence 2) [49CBB79B]
Copy OK

Track 3 Filename D:\Torrents\Dave Weckl Band - 1999 - Synergy [FLAC - 100% Log - CUE]\03 - Swunk.wav Peak level 100.0 %
Track quality 100.0 %
Test CRC 7D7922F0
Copy CRC 7D7922F0
Accurately ripped (confidence 2) [6EC3E507]
Copy OK

Track 4 Filename D:\Torrents\Dave Weckl Band - 1999 - Synergy [FLAC - 100% Log - CUE]\04 - A Simple Prayer.wav Pre-gap length 0:00:02.33 Peak level 100.0 %
Track quality 100.0 %
Test CRC 21312D09
Copy CRC 21312D09
Accurately ripped (confidence 2) [A3909D85]
Copy OK

Track 5 Filename D:\Torrents\Dave Weckl Band - 1999 - Synergy [FLAC - 100% Log - CUE]\05 - Cape Fear.wav Pre-gap length 0:00:02.33 Peak level 100.0 %
Track quality 100.0 %
Test CRC 397F5448
Copy CRC 397F5448
Accurately ripped (confidence 2) [9E375B34]
Copy OK

Track 6 Filename D:\Torrents\Dave Weckl Band - 1999 - Synergy [FLAC - 100% Log - CUE]\06 - Wet Skin.wav Pre-gap length 0:00:01.64 Peak level 100.0 %
Track quality 100.0 %
Test CRC 6F04CC72
Copy CRC 6F04CC72
Accurately ripped (confidence 2) [A10C166E]
Copy OK

Track 7 Filename D:\Torrents\Dave Weckl Band - 1999 - Synergy [FLAC - 100% Log - CUE]\07 - Synergy.wav Pre-gap length 0:00:02.33 Peak level 100.0 %
Track quality 100.0 %
Test CRC AC87160C
Copy CRC AC87160C
Accurately ripped (confidence 2) [9748A2C2]
Copy OK

Track 8 Filename D:\Torrents\Dave Weckl Band - 1999 - Synergy [FLAC - 100% Log - CUE]\08 - Where's my Paradise .wav Pre-gap length 0:00:01.97 Peak level 70.9 %
Track quality 100.0 %
Test CRC AC1D9030
Copy CRC AC1D9030
Accurately ripped (confidence 2) [714D692A]
Copy OK

Track 9 Filename D:\Torrents\Dave Weckl Band - 1999 - Synergy [FLAC - 100% Log - CUE]\09 - Lucky Seven.wav Pre-gap length 0:00:02.26 Peak level 100.0 %
Track quality 100.0 %
Test CRC 0EEC1D64
Copy CRC 0EEC1D64
Accurately ripped (confidence 2) [1BF975EC]
Copy OK

Track 10 Filename D:\Torrents\Dave Weckl Band - 1999 - Synergy [FLAC - 100% Log - CUE]\10 - Swamp Thing.wav Pre-gap length 0:00:01.93 Peak level 100.0 %
Track quality 100.0 %
Test CRC BDB0DD50
Copy CRC BDB0DD50
Accurately ripped (confidence 2) [731F53DB]
Copy OK

Track 11 Filename D:\Torrents\Dave Weckl Band - 1999 - Synergy [FLAC - 100% Log - CUE]\11 - Cultural Concurrence.wav Pre-gap length 0:00:01.82 Peak level 100.0 %
Track quality 100.0 %
Test CRC CEF9CBE9
Copy CRC CEF9CBE9
Accurately ripped (confidence 2) [3C5097D7]
Copy OK

Track 12 Filename D:\Torrents\Dave Weckl Band - 1999 - Synergy [FLAC - 100% Log - CUE]\12 - Tower '99.wav Peak level 100.0 %
Track quality 100.0 %
Test CRC DAE2445A
Copy CRC DAE2445A
Accurately ripped (confidence 2) [9633116E]
Copy OK

All tracks accurately ripped

No errors occurred

End of status report

Analyzed: Dave Weckl Band / Synergy

DR Peak RMS Duration Track

DR12 0.00 dB -13.84 dB 7:49 01-High Life
DR10 0.00 dB -12.75 dB 5:23 02-Panda's Dream
DR10 0.00 dB -12.62 dB 4:51 03-Swunk
DR13 0.00 dB -17.03 dB 4:55 04-A Simple Player
DR12 0.00 dB -13.97 dB 6:56 05-Cape Fear
DR11 0.00 dB -13.57 dB 6:13 06-Wet Skin
DR11 0.00 dB -13.46 dB 7:15 07-Synergy
DR13 -2.99 dB -20.06 dB 4:54 08-Where's My Paradise
DR10 0.00 dB -13.32 dB 5:58 09-Lucky Seven
DR9 0.00 dB -11.33 dB 5:24 10-Swamp Thing
DR12 0.00 dB -14.62 dB 3:26 11-Cultural Concurrence
DR10 0.00 dB -12.38 dB 6:07 12-Tower '99

Number of tracks: 12
Official DR value: DR11

Samplerate: 44100 Hz
Channels: 2
Bits per sample: 16
Bitrate: 950 kbps
Codec: FLAC

Dave Weckl Band - Synergy (1999) {Stretch}

Dave Weckl Band - Synergy (1999) {Stretch}

Dave Weckl Band - Synergy (1999) {Stretch}



DOWNLOAD LINKS:
Buy Premium To Support Me & Get Resumable Support & Max Speed


Links are Interchangeable - No Password - Single Extraction

Direct Download

Tags: Synergy, Stretch

Dave Weckl Band - Synergy (1999) {Stretch} Download via Hotfile Rapidshare Fileserve Megaupload & FileSonic, Dave Weckl Band - Synergy (1999) {Stretch} free torrent downloads included crack, serial, keygen.


Attention!Information

Members of Guest cannot leave comments.