Thinking Plague - Upon Both Your Houses (2004)

Download Now

Thinking Plague - Upon Both Your Houses (2004)

Thinking Plague - Upon Both Your Houses (2004)
EAC Rip | FLAC (Img) + Cue + Log ~ 434 Mb | MP3 CBR320 ~ 173 Mb
Scans (PNG, 600 dpi) ~ 134 Mb | RAR 5% Recovery
Avantgarde, Progressive Rock, RIO | NEARfest Records #NFR0004

""Upon both your houses" based on a live performance, from Nearfest festival 2000, in front of a quite small audience (1000 sits). It contain TP songs mainly from "In this life" and "In extremis" albums. This life show could not replace any studio album by the band, but sounds different from each one and has its own uniqueness, because of the songs editing, the sound and the environment... Thinking Plague is a United States avant-garde progressive rock group founded in 1982 by guitarist/composer, Mike Johnson, and bass guitarist/drummer, Bob Drake. Based in Denver, Colorado, the band has been active off and on since 1982, taking on a number of musicians over the years. They have made six studio albums between 1984 and 2012, and released one live album recorded at NEARfest in 2000..."

Prog Archives | Wiki | Discogs | All Music
***************

Thinking Plague - Upon Both Your Houses (2004)

Track List:

01. Dead Silence [04:45]
02. Lycanthrope [08:30]
03. Maelstrom [04:43]
04. Love [07:00]
05. The Aesthete [04:58]
06. Excerpt From Moonsongs [03:53]
07. Hamster Dance [04:23]
08. Piano Solo [04:44]
09. Kingdom Come [13:28]
10. Malaise [04:41]
11. Behold The Man [04:27]
12. Warheads [06:46]

Exact Audio Copy V0.99 prebeta 5 from 4. May 2009

EAC extraction logfile from 21. September 2010, 23:57

Thinking Plague / Upon Both Your Houses

Used drive : SONY DVD RW DRU-830A Adapter: 1 ID: 0

Read mode : Secure
Utilize accurate stream : Yes
Defeat audio cache : Yes
Make use of C2 pointers : No

Read offset correction

: 6
Overread into Lead-In and Lead-Out : No
Fill up missing offset samples with silence : Yes
Delete leading and trailing silent blocks : No
Null samples used in CRC calculations : Yes
Used interface
: Native Win32 interface for Win NT & 2000

Used output format : User Defined Encoder
Selected bitrate : 128 kBit/s
Quality : High
Add ID3 tag : No
Command line compressor : C:\Program Files (x86)\Exact Audio Copy\wavpack.exe
Additional command line options : -hlm %s

TOC of the extracted CD Track | Start | Length | Start sector | End sector
--1 | 0:00.00 | 4:44.36 | 0 | 21335 2 | 4:44.36 | 8:29.62 | 21336 | 59572 3 | 13:14.23 | 4:42.12 | 59573 | 80734 4 | 17:56.35 | 6:59.19 | 80735 | 112178 5 | 24:55.54 | 4:57.42 | 112179 | 134495 6 | 29:53.21 | 3:52.20 | 134496 | 151915 7 | 33:45.41 | 4:22.34 | 151916 | 171599 8 | 38:08.00 | 4:43.36 | 171600 | 192860 9 | 42:51.36 | 13:27.55 | 192861 | 253440
10 | 56:19.16 | 4:40.09 | 253441 | 274449
11 | 60:59.25 | 4:26.58 | 274450 | 294457
12 | 65:26.08 | 6:45.50 | 294458 | 324882

Range status and errors

Selected range Filename C:\_kosta\FLAC\Thinking Plague - Upon Both Your Houses.wav Peak level 96.7 %
Range quality 99.9 %
Copy CRC F159D0BC
Copy OK

No errors occurred


AccurateRip summary

Track 1 not present in database
Track 2 not present in database
Track 3 not present in database
Track 4 not present in database
Track 5 not present in database
Track 6 not present in database
Track 7 not present in database
Track 8 not present in database
Track 9 not present in database
Track 10 not present in database
Track 11 not present in database
Track 12 not present in database

None of the tracks are present in the AccurateRip database

End of status report

foobar2000 1.2.6 / Dynamic Range Meter 1.1.1
log date: 2015-10-16 15:14:19

Analyzed: Thinking Plague / Upon Both Your Houses

DR Peak RMS Duration Track

DR13 -0.28 dB -17.10 dB 4:44 01-Dead Silence
DR13 -0.29 dB -16.53 dB 8:30 02-Lycanthrope
DR12 -0.31 dB -17.18 dB 4:42 03-Maelstrom
DR13 -0.30 dB -16.57 dB 6:59 04-Love
DR13 -0.36 dB -19.02 dB 4:58 05-The Aesthete
DR12 -9.19 dB -24.37 dB 3:52 06-Excerpt From Moonsongs
DR13 -9.14 dB -25.53 dB 4:22 07-Hamster Dance
DR13 -9.09 dB -26.79 dB 4:43 08-Piano Solo
DR13 -0.29 dB -17.81 dB 13:28 09-Kingdom Come
DR13 -0.31 dB -18.10 dB 4:40 10-Malaise
DR13 -0.31 dB -18.02 dB 4:27 11-Behold The Man
DR14 -0.29 dB -17.43 dB 6:46 12-Warheads

Number of tracks: 12
Official DR value: DR13

Samplerate: 44100 Hz
Channels: 2
Bits per sample: 16
Bitrate: 800 kbps
Codec: FLAC

[CUETools log; Date: 16.10.2015 15:14:15; Version: 2.1.5]
[CTDB TOCID: sEFKMM5u5aDibHDcprfvTC0ptMw-] found.
Track | CTDB Status
1 | (3/4) Accurately ripped
2 | (3/4) Accurately ripped
3 | (3/4) Accurately ripped
4 | (3/4) Accurately ripped
5 | (3/4) Accurately ripped
6 | (3/4) Accurately ripped
7 | (3/4) Accurately ripped
8 | (3/4) Accurately ripped
9 | (3/4) Accurately ripped
10 | (3/4) Accurately ripped
11 | (3/4) Accurately ripped
12 | (4/4) Accurately ripped
[AccurateRip ID: 001f9d78-0127efc3-c110eb0c] found.
Track [ CRC | V2 ] Status
01 [1685b5a0|cdec13b6] (2+3/5) Accurately ripped
02 [559e56e3|ccd9a40b] (2+3/5) Accurately ripped
03 [20186544|1fc9da55] (2+3/5) Accurately ripped
04 [8d2287fe|34de5c14] (2+3/5) Accurately ripped
05 [508ffd61|ef310482] (2+3/5) Accurately ripped
06 [2f85c11b|a8aa2fdb] (2+3/5) Accurately ripped
07 [ac2ac85f|b417873f] (2+3/5) Accurately ripped
08 [10d01774|ecdb70e4] (2+3/5) Accurately ripped
09 [83e8649d|1c51050a] (2+3/5) Accurately ripped
10 [04aa65fe|7a13d406] (2+3/5) Accurately ripped
11 [106838f7|7670b075] (2+3/5) Accurately ripped
12 [83896208|05aa6123] (2+3/5) Accurately ripped

Track Peak [ CRC32 ] [W/O NULL] [ LOG ]
-- 96,7 [F159D0BC] [546D4B01] CRC32
01 96,7 [4475088B] [1F1664ED]
02 96,7 [EF22F7BF] [D865C4A3]
03 96,4 [68B5E4BA] [53E5F471]
04 96,5 [3B5260E4] [E976A52C]
05 95,9 [CD4DA57D] [F56C701F]
06 34,7 [7FCAF608] [DCC8262E]
07 34,9 [F92515DE] [E8329491]
08 35,1 [2B82FEC5] [DF894C0F]
09 96,6 [E22BCBD5] [654F3DC4]
10 96,4 [8AEB416B] [FF45190F]
11 96,4 [ABF49E4E] [798E0625]
12 96,6 [962635EF] [03ABB714]

Thinking Plague - Upon Both Your Houses (2004)

Thinking Plague - Upon Both Your Houses (2004)

DOWNLOAD LINKS:
Buy Premium To Support Me & Get Resumable Support & Max Speed


Links are Interchangeable - No Password - Single Extraction

Direct Download

Tags: Thinking, Plague, Houses

Thinking Plague - Upon Both Your Houses (2004) Download via Hotfile Rapidshare Fileserve Megaupload & FileSonic, Thinking Plague - Upon Both Your Houses (2004) free torrent downloads included crack, serial, keygen.


Attention!Information

Members of Guest cannot leave comments.