Jay Gordon And The Penetrators - Gold Rings Silver Bullets (2007)

Download Now

Jay Gordon And The Penetrators - Gold Rings Silver Bullets (2007)

Jay Gordon And The Penetrators - Gold Rings Silver Bullets (2007)
EAC Rip | FLAC (Img) + Cue + Log ~ 561 Mb | MP3 CBR320 ~ 176 Mb
Scans (JPG, 600 dpi) ~ 40 Mb | RAR 5% Recovery
Heavy Blues Rock | Shuttle Music #842614022425

"Electric blues guitarist Jay Gordon recorded a series of albums for Blue Ace that inspired comparisons to such legendary guitarists as Jimi Hendrix and Stevie Ray Vaughan. Beginning with Blues Infested (1994), Gordon won much praise from the blues community. Each successive album became increasingly successful -- Broadcasting the Blues Live (1996), Electric Redemption (1998), and so on -- and the guitarist soon found himself being compared to some of the most legendary guitarists to ever play electric blues. In 2000, Gordon collaborated with Phillip Walker on the Jaywalkin album for Blue Ace, yet another accomplishment for the celebrated guitarist. Furthermore, in addition to his guitar playing, Gordon also produces and sings on many of his own recordings."

Official Website | All Music
***************

Jay Gordon And The Penetrators - Gold Rings Silver Bullets (2007)

Track List:

01. Pain [06:22]
02. Lost in Time [04:01]
03. Fire and Brimstone Boogie [05:26]
04. Sixstring Outlaw [04:43]
05. Thing Going On [02:55]
06. Driving Me Wild [02:51]
07. Loves Emotion [03:45]
08. Let It Ring [03:53]
09. Propaganda [03:48]
10. The Original Sin [09:29]
11. Juke Joint [05:11]
12. Pickin' on a Piece of Wood [03:44]
13. Blacksheep [03:27]
14. Freight Train [04:27]
15. My Heart is Heavy [05:10]
16. Blue Hearts [03:58]

Exact Audio Copy V1.0 beta 3 from 29. August 2011

Отчёт EAC об извлечении, выполненном 5. сентября 2015, 12:06

Jay Gordon and the Penetrators / Gold Rings Silver Bullets

Дисковод: ATAPI iHAS424 A Adapter: 0 ID: 0

Режим чтения : Достоверность
Использование точного потока : Да
Отключение кэша аудио : Да
Использование указателей C2 : Нет

Коррекция смещения при чтении : 6
Способность читать области Lead-in и Lead-out : Нет
Заполнение пропущенных сэмплов тишиной : Да
Удаление блоков с тишиной в начале и конце : Нет
При вычислениях CRC использовались нулевые сэмплы : Да
Интерфейс : Установленный внешний ASPI-интерфейс

Выходной формат : Пользовательский кодировщик
Выбранный битрейт : 1024 kBit/s
Качество : Высокий
Добавление ID3-тега : Нет
Утилита сжатия : C:\Program Files\Exact Audio Copy\FLAC\FLAC.EXE
Дополнительные параметры : -8 -V -T "ARTIST=%artist%" -T "ALBUM=%albumtitle%" -T "DATE=%year%" -T "GENRE=%genre%" -T "COMMENT=ripped by izia1956" %source%

TOC извлечённого CD Трек | Старт | Длительность | Начальный сектор | Конечный сектор

1 | 0:00.00 | 6:21.71 | 0 | 28645
2 | 6:21.71 | 4:00.51 | 28646 | 46696
3 | 10:22.47 | 5:25.59 | 46697 | 71130
4 | 15:48.31 | 4:42.49 | 71131 | 92329
5 | 20:31.05 | 2:54.35 | 92330 | 105414
6 | 23:25.40 | 2:50.73 | 105415 | 118237
7 | 26:16.38 | 3:44.72 | 118238 | 135109
8 | 30:01.35 | 3:52.56 | 135110 | 152565
9 | 33:54.16 | 3:47.25 | 152566 | 169615
10 | 37:41.41 | 9:28.45 | 169616 | 212260
11 | 47:10.11 | 5:10.31 | 212261 | 235541
12 | 52:20.42 | 3:43.66 | 235542 | 252332
13 | 56:04.33 | 3:26.44 | 252333 | 267826
14 | 59:31.02 | 4:26.63 | 267827 | 287839
15 | 63:57.65 | 5:09.58 | 287840 | 311072
16 | 69:07.48 | 3:57.03 | 311073 | 328850

Характеристики диапазона извлечения и сообщения об ошибках

Выбранный диапазон Имя файла D:\BitComet\Jay Gordon\2007 - Jay Gordon and the Penetrators - Gold Rings Silver Bullets\Jay Gordon and the Penetrators - Gold Rings Silver Bullets.wav Пиковый уровень 100.0 %
Скорость извлечения 6.7 X
Качество диапазона 100.0 %
CRC теста B08A79C1
CRC копии B08A79C1
Копирование... OK

Ошибок не произошло


AccurateRip: сводка

Трек 1 отсутствует в базе данных
Трек 2 отсутствует в базе данных
Трек 3 отсутствует в базе данных
Трек 4 отсутствует в базе данных
Трек 5 отсутствует в базе данных
Трек 6 отсутствует в базе данных
Трек 7 отсутствует в базе данных
Трек 8 отсутствует в базе данных
Трек 9 отсутствует в базе данных
Трек 10 отсутствует в базе данных
Трек 11 отсутствует в базе данных
Трек 12 отсутствует в базе данных
Трек 13 отсутствует в базе данных
Трек 14 отсутствует в базе данных
Трек 15 отсутствует в базе данных
Трек 16 отсутствует в базе данных

Ни одного трека нет в базе AccurateRip

Конец отчёта

==== Контрольная сумма отчёта CD15A754AC3CFB3047D50EE954B6190DE21257DF1BE8D7E9DABC8444AA692A6B ====

foobar2000 1.2.6 / Dynamic Range Meter 1.1.1
log date: 2015-10-16 19:20:21

Analyzed: Jay Gordon and the Penetrators / Gold Rings Silver Bullets

DR Peak RMS Duration Track

DR9 0.00 dB -10.51 dB 6:22 01-Pain
DR7 -0.51 dB -8.40 dB 4:01 02-Lost in Time
DR7 -0.51 dB -8.24 dB 5:26 03-Fire and Brimstone Boogie
DR9 -0.24 dB -10.12 dB 4:43 04-Sixstring Outlaw
DR8 -0.18 dB -9.62 dB 2:54 05-Thing Going On
DR12 -0.18 dB -12.77 dB 2:51 06-Driving Me Wild
DR12 -0.18 dB -12.81 dB 3:45 07-Loves Emotion
DR8 -0.71 dB -8.81 dB 3:53 08-Let It Ring
DR8 -0.10 dB -8.82 dB 3:47 09-Propaganda
DR8 -0.67 dB -9.44 dB 9:29 10-The Original Sin
DR8 0.00 dB -8.58 dB 5:10 11-Juke Joint
DR9 -0.12 dB -10.27 dB 3:44 12-Pickin' on a Piece of Wood
DR9 -0.24 dB -9.90 dB 3:27 13-Blacksheep
DR8 -0.86 dB -9.23 dB 4:27 14-Freight Train
DR9 -0.16 dB -9.80 dB 5:10 15-My Heart is Heavy
DR8 -0.20 dB -9.24 dB 3:57 16-Blue Hearts

Number of tracks: 16
Official DR value: DR9

Samplerate: 44100 Hz
Channels: 2
Bits per sample: 16
Bitrate: 1023 kbps
Codec: FLAC

[CUETools log; Date: 16.10.2015 19:20:25; Version: 2.1.5]
[CTDB TOCID: J_4Lj3kIGwJTBswPAzPDHQrE7YA-] disk not present in database.
[AccurateRip ID: 002af5f4-0201289d-de112010] found.
Track [ CRC | V2 ] Status
01 9b513f2|e3a22e7f (0+1/1) Accurately ripped
02 [e4d57a8e|1d8f97d6] (0+1/1) Accurately ripped
03 [5afd507d|64e519a3] (0+1/1) Accurately ripped
04 [70827bdb|e5353bff] (0+1/1) Accurately ripped
05 [334dbb8a|13e23e2f] (0+1/1) Accurately ripped
06 [3e0d636a|482ad3e3] (0+1/1) Accurately ripped
07 [f52e46d8|e2199be8] (0+1/1) Accurately ripped
08 [5c1c2f4e|e6f62af5] (0+1/1) Accurately ripped
09 [cd402281|41853ed9] (0+1/1) Accurately ripped
10 [22124e00|d6abab1a] (0+1/1) Accurately ripped
11 [31adcb67|b25a93ef] (0+1/1) Accurately ripped
12 [9bcfdf17|c7163a1e] (0+1/1) Accurately ripped
13 [608857f8|e3e4d263] (0+1/1) Accurately ripped
14 [2ac0ee24|94d16b6f] (0+1/1) Accurately ripped
15 [532b7f3e|a018d4c6] (0+1/1) Accurately ripped
16 [4b7f4193|8ae9adaf] (0+1/1) Accurately ripped

Track Peak [ CRC32 ] [W/O NULL] [ LOG ]
-- 100,0 08A79C1 [EB305624] CRC32
01 100,0 [A326F568] [D4FB38EB]
02 94,2 [96AFD24C] [3DE6B122]
03 94,2 [771CC8F8] [C66F3131]
04 97,2 [76235ADC] [E472021A]
05 97,9 [9B07C5BF] [03290AFE]
06 97,9 [8C461F9F] [FF7C06EB]
07 97,9 [480DA390] [D7A41791]
08 92,1 [545B5978] AB3970B
09 98,8 [74AB6461] [1256A674]
10 92,5 [6B22CCB2] [C3806301]
11 100,0 [A9EE082D] [9748C878]
12 98,6 [E712430E] [1D49F6C1]
13 97,2 [DC591474] [DDF514CA]
14 90,5 [5BFC7D47] [27972282]
15 98,2 19E6916 [610DDE74]
16 97,7 [8F385C42] [C0A79C65]

Jay Gordon And The Penetrators - Gold Rings Silver Bullets (2007)

Jay Gordon And The Penetrators - Gold Rings Silver Bullets (2007)

DOWNLOAD
(Premium Recommended)


All above links are interchangable. No password

Direct Download

Tags: Gordon, Penetrators, Silver, Bullets

Jay Gordon And The Penetrators - Gold Rings Silver Bullets (2007) Download via Hotfile Rapidshare Fileserve Megaupload & FileSonic, Jay Gordon And The Penetrators - Gold Rings Silver Bullets (2007) free torrent downloads included crack, serial, keygen.


Attention!Information

Members of Guest cannot leave comments.