Angel Ontalva - Land Of Rain And Steel (2013) [Limited Edition]

Download Now

Angel Ontalva - Land Of Rain And Steel (2013) [Limited Edition]

Angel Ontalva - Land Of Rain And Steel (2013)
EAC Rip | FLAC (Img) + Cue + Log ~ 206 Mb | MP3 CBR320 ~ 108 Mb
Scans (PNG, 600 dpi) ~ 101 Mb | RAR 5% Recovery
RIO, Avant-Prog, Experimental | octoberXart Records #cdr01

"Spanish composer and musician Ángel Ontalva is perhaps best known as a central member of the Spanish band October Equus, but he has been involved in multiple side projects and collaborative productions in the last few years as well, in addition to establishing a solo career. Land of Rain and Steel is a solo guitar album recorded by Angel Ontalva in 2007 during the recording sessions for the album 'Charybdis' October Equus. These improvisations in real time, without overdubs or editing of any kind: what you hear is what was recorded at the time, with the exception of rhythmic loop at the end of The Border, which itself was published in the mix..."

Prog Archives | Discogs
***************

Angel Ontalva - Land Of Rain And Steel (2013) [Limited Edition]

Track List:

01. no birds [05:37]
02. strange garden [06:07]
03. heavy industry [06:15]
04. the border [04:41]
05. last chance [02:49]
06. sand and bones [04:52]
07. acid sea [05:35]
08. rain and steel [07:11]
09. requiem [02:05]

Exact Audio Copy V1.0 beta 6 from 9. April 2015

EAC extraction logfile from 9. October 2015, 7:34

Angel Ontalva / Land of Rain and Steel

Used drive : TSSTcorpCDDVDW SH-S223C Adapter: 1 ID: 0

Read mode : Secure
Utilize accurate stream : Yes
Defeat audio cache : Yes
Make use of C2 pointers : No

Read offset correction

: 697
Overread into Lead-In and Lead-Out : No
Fill up missing offset samples with silence : Yes
Delete leading and trailing silent blocks : No
Null samples used in CRC calculations : Yes
Used interface
: Native Win32 interface for Win NT & 2000

Used output format : User Defined Encoder
Selected bitrate : 128 kBit/s
Quality : High
Add ID3 tag : No
Command line compressor : C:\Program Files (x86)\Exact Audio Copy\wavpack\wavpack.exe
Additional command line options : -hm -w "Year=%year%" -w "Genre=%genre%" %source% %dest%

TOC of the extracted CD Track | Start | Length | Start sector | End sector
--1 | 0:00.00 | 5:36.37 | 0 | 25236 2 | 5:36.37 | 6:06.18 | 25237 | 52704 3 | 11:42.55 | 6:14.18 | 52705 | 80772 4 | 17:56.73 | 4:40.18 | 80773 | 101790 5 | 22:37.16 | 2:48.18 | 101791 | 114408 6 | 25:25.34 | 4:51.37 | 114409 | 136270 7 | 30:16.71 | 5:35.00 | 136271 | 161395 8 | 35:51.71 | 7:10.37 | 161396 | 193682 9 | 43:02.33 | 2:04.37 | 193683 | 203019

Range status and errors

Selected range Filename D:\_NL+_\_CD\Angel Ontalva - Land of Rain and Steel.wav Peak level 100.0 %
Extraction speed 5.9 X
Range quality 100.0 %
Test CRC C6DBCDAC
Copy CRC C6DBCDAC
Copy OK

No errors occurred


AccurateRip summary

Track 1 not present in database
Track 2 not present in database
Track 3 not present in database
Track 4 not present in database
Track 5 not present in database
Track 6 not present in database
Track 7 not present in database
Track 8 not present in database
Track 9 not present in database

None of the tracks are present in the AccurateRip database

End of status report

- CUETools DB Plugin V2.1.6

[CTDB TOCID: nZv9X_5htMeY8jh8k8.hmLI15WQ-] found
Submit result: nZv9X_5htMeY8jh8k8.hmLI15WQ- has been confirmed
Track | CTDB Status
1 | (1/1) Accurately ripped
2 | (1/1) Accurately ripped
3 | (1/1) Accurately ripped
4 | (1/1) Accurately ripped
5 | (1/1) Accurately ripped
6 | (1/1) Accurately ripped
7 | (1/1) Accurately ripped
8 | (1/1) Accurately ripped
9 | (1/1) Accurately ripped

==== Log checksum 3C80B2FDE15E0A1EAD4C1730900FAF3AEB155D9D997D7EBF566D02E2612AE27D ====

foobar2000 1.2.6 / Dynamic Range Meter 1.1.1
log date: 2015-10-16 15:53:38

Analyzed: Angel Ontalva / Land of Rain and Steel

DR Peak RMS Duration Track

DR9 -0.02 dB -14.47 dB 5:36 01-no birds
DR7 -0.07 dB -10.99 dB 6:06 02-strange garden
DR7 -0.34 dB -11.60 dB 6:14 03-heavy industry
DR8 0.00 dB -10.21 dB 4:40 04-the border
DR9 -0.04 dB -12.15 dB 2:48 05-last chance
DR9 -0.57 dB -11.89 dB 4:51 06-sand and bones
DR9 -0.12 dB -13.90 dB 5:35 07-acid sea
DR7 -1.77 dB -13.55 dB 7:10 08-rain and steel
DR10 -0.67 dB -16.09 dB 2:04 09-requiem

Number of tracks: 9
Official DR value: DR8

Samplerate: 44100 Hz
Channels: 2
Bits per sample: 16
Bitrate: 606 kbps
Codec: FLAC

[CUETools log; Date: 16.10.2015 15:53:35; Version: 2.1.5]
[CTDB TOCID: nZv9X_5htMeY8jh8k8.hmLI15WQ-] found.
Track | CTDB Status
1 | (2/2) Accurately ripped
2 | (2/2) Accurately ripped
3 | (2/2) Accurately ripped
4 | (2/2) Accurately ripped
5 | (2/2) Accurately ripped
6 | (2/2) Accurately ripped
7 | (2/2) Accurately ripped
8 | (2/2) Accurately ripped
9 | (2/2) Accurately ripped
[AccurateRip ID: 001050e5-00762fdf-7c0a9209] disk not present in database.

Track Peak [ CRC32 ] [W/O NULL] [ LOG ]
-- 100,0 [C6DBCDAC] [ADDE0418] CRC32
01 99,7 [EAAC63AA] [D4641207]
02 99,2 [9183913E] [EFE95A25]
03 96,1 [D3609D08] [5128DC3B]
04 100,0 [3E41E5F0] [3B580AEC]
05 99,5 [CC55381D] [E49C168D]
06 93,6 [3FDF9F29] [3E526D37]
07 98,5 [072C6301] [0CB338FD]
08 81,6 [F2D68D60] [9A4D4881]
09 92,5 [DEECEF26] [A1D149DC]

Angel Ontalva - Land Of Rain And Steel (2013) [Limited Edition]

Download:
Buy Premium To Support Me & Get Resumable Support & Max Speed


Links are Interchangeable - No Password

Direct Download

Tags: Ontalva, Limited

Angel Ontalva - Land Of Rain And Steel (2013) [Limited Edition] Download via Hotfile Rapidshare Fileserve Megaupload & FileSonic, Angel Ontalva - Land Of Rain And Steel (2013) [Limited Edition] free torrent downloads included crack, serial, keygen.


Attention!Information

Members of Guest cannot leave comments.