Pat Benatar - Seven The Hard Way (1985)

Download Now

Pat Benatar - Seven The Hard Way (1985)

Pat Benatar - Seven The Hard Way (1985)
EAC Rip | FLAC (Img) + Cue + Log ~ 262 Mb | MP3 CBR320 ~ 97 Mb
Covers Included | RAR 5% Recovery
Rock | Chrysalis Records #ACCD 1507

"Seven the Hard Way is Pat Benatar's sixth studio album, and her seventh album overall, released in 1985. It debuted on the US Billboard 200 album chart the week of December 14 and peaked at No. 26, producing the hits: "Invincible", "Sex as a Weapon", and "Le Bel Age". The album sold approximately 600,000 in the US and was certified Gold. The Grammy nominated single, "Invincible" was produced by Mike Chapman and recorded for the soundtrack of the Matthew Robbins' movie The Legend of Billie Jean, which, although doing poorly at the box office, became a cult classic to MTV fans in general. The song became a hit single and was included in the album, despite its musical style being quite different from Benatar's current one and more reminiscent of her earlier efforts..."

Wiki | Discogs | All Music
***************

Pat Benatar - Seven The Hard Way (1985)

Track List:

01. Sex As A Weapon [04:22]
02. Le Bel Age [05:12]
03. Walking In The Underground [04:43]
04. Big Life [02:42]
05. Red Vision [03:54]
06. 7 Rooms Of Gloom [03:36]
07. Run Between The Raindrops [04:30]
08. Invincible (Theme From 'The Legend Of Billie Jean') [04:30]
09. The Art Of Letting Go [04:00]

Exact Audio Copy V1.0 beta 6 from 9. April 2015

EAC extraction logfile from 14. October 2015, 20:24

Pat Benatar / Seven The Hard Way

Used drive : HL-DT-STDVDRAM GH22NS40 Adapter: 1 ID: 0

Read mode : Secure
Utilize accurate stream : Yes
Defeat audio cache : Yes
Make use of C2 pointers : No

Read offset correction

: 667
Overread into Lead-In and Lead-Out : No
Fill up missing offset samples with silence : Yes
Delete leading and trailing silent blocks : No
Null samples used in CRC calculations : Yes
Used interface
: Native Win32 interface for Win NT & 2000

Used output format : User Defined Encoder
Selected bitrate : 1024 kBit/s
Quality : High
Add ID3 tag : Yes
Command line compressor : C:\Program Files\Exact Audio Copy\Flac\flac.exe
Additional command line options : -V -8 -T "Date=%year%" -T "Genre=%genre%" %source%

TOC of the extracted CD Track | Start | Length | Start sector | End sector
--1 | 0:00.50 | 4:21.32 | 50 | 19656 2 | 4:22.07 | 5:11.55 | 19657 | 43036 3 | 9:33.62 | 4:42.70 | 43037 | 64256 4 | 14:16.57 | 2:41.55 | 64257 | 76386 5 | 16:58.37 | 3:53.18 | 76387 | 93879 6 | 20:51.55 | 3:35.45 | 93880 | 110049 7 | 24:27.25 | 4:29.52 | 110050 | 130276 8 | 28:57.02 | 4:29.35 | 130277 | 150486 9 | 33:26.37 | 3:59.13 | 150487 | 168424

Range status and errors

Selected range Filename I:\Rips\Pat Benatar - Seven The Hard Way.wav Peak level 95.5 %
Extraction speed 1.8 X
Range quality 99.9 %
Test CRC D8FB3573
Copy CRC D8FB3573
Copy OK

No errors occurred


AccurateRip summary

Track 1 accurately ripped (confidence 4) [F2B38979] (AR v2)
Track 2 accurately ripped (confidence 4) [7801F38D] (AR v2)
Track 3 accurately ripped (confidence 3) [3F86F446] (AR v2)
Track 4 accurately ripped (confidence 4) [4BEECB57] (AR v2)
Track 5 accurately ripped (confidence 4) [4C14C61D] (AR v2)
Track 6 accurately ripped (confidence 4) [294FEB06] (AR v2)
Track 7 accurately ripped (confidence 4) [43626DDC] (AR v2)
Track 8 accurately ripped (confidence 3) [DA4A8D13] (AR v2)
Track 9 accurately ripped (confidence 4) [3D521524] (AR v2)

All tracks accurately ripped

End of status report

- CUETools DB Plugin V2.1.6

[CTDB TOCID: 8Zh0DioYpgTvcJkREWBYFaks.nk-] found
Submit result: already submitted
Track | CTDB Status
1 | (1/1) Accurately ripped
2 | (1/1) Accurately ripped
3 | (1/1) Accurately ripped
4 | (1/1) Accurately ripped
5 | (1/1) Accurately ripped
6 | (1/1) Accurately ripped
7 | (1/1) Accurately ripped
8 | (1/1) Accurately ripped
9 | (1/1) Accurately ripped

==== Log checksum 725422828E79E85D074A2EFA7C0CCDA1C78FFB8FB674EF7751EA7DEA017F912D ====

foobar2000 1.2.6 / Dynamic Range Meter 1.1.1
log date: 2015-10-18 00:30:47

Analyzed: Pat Benatar / Seven The Hard Way

DR Peak RMS Duration Track

DR13 -1.24 dB -16.04 dB 4:21 01-Sex As A Weapon
DR12 -1.85 dB -16.11 dB 5:12 02-Le Bel Age
DR13 -1.60 dB -17.50 dB 4:43 03-Walking In The Underground
DR12 -3.04 dB -16.29 dB 2:42 04-Big Life
DR12 -2.19 dB -17.54 dB 3:53 05-Red Vision
DR13 -0.83 dB -15.64 dB 3:36 06-7 Rooms Of Gloom
DR13 -0.76 dB -15.44 dB 4:30 07-Run Between The Raindrops
DR12 -1.72 dB -15.82 dB 4:29 08-Invincible (Theme From 'The Legend Of Billie Jean')
DR15 -0.39 dB -16.95 dB 3:59 09-The Art Of Letting Go

Number of tracks: 9
Official DR value: DR13

Samplerate: 44100 Hz
Channels: 2
Bits per sample: 16
Bitrate: 909 kbps
Codec: FLAC

[CUETools log; Date: 18.10.2015 0:30:40; Version: 2.1.5]
Pregap length 00:00:50.
[CTDB TOCID: 8Zh0DioYpgTvcJkREWBYFaks.nk-] found.
Track | CTDB Status
1 | (1/1) Accurately ripped
2 | (1/1) Accurately ripped
3 | (1/1) Accurately ripped
4 | (1/1) Accurately ripped
5 | (1/1) Accurately ripped
6 | (1/1) Accurately ripped
7 | (1/1) Accurately ripped
8 | (1/1) Accurately ripped
9 | (1/1) Accurately ripped
[AccurateRip ID: 000d11bb-005ef05d-7408c509] found.
Track [ CRC | V2 ] Status
01 [59c01306|f2b38979] (03+05/11) Accurately ripped
02 [6ff9887e|7801f38d] (03+05/11) Accurately ripped
03 [a4953b70|3f86f446] (03+04/10) Accurately ripped
04 [86f21e02|4beecb57] (03+05/11) Accurately ripped
05 [475b7387|4c14c61d] (03+05/11) Accurately ripped
06 [8bd4220a|294feb06] (03+05/11) Accurately ripped
07 [426e123c|43626ddc] (03+05/11) Accurately ripped
08 [8c251708|da4a8d13] (03+04/10) Accurately ripped
09 [ad3ee22b|3d521524] (03+05/11) Accurately ripped
Offsetted by 197:
01 [73c3ff21] (03/11) Accurately ripped
02 [e59bf477] (03/11) Accurately ripped
03 [095bff83] (03/10) Accurately ripped
04 [5f51c953] (03/11) Accurately ripped
05 6999b4c (03/11) Accurately ripped
06 [3e0dc914] (03/11) Accurately ripped
07 [8e27c458] (03/11) Accurately ripped
08 [998e7dcb] (03/10) Accurately ripped
09 [2024cff6] (00/11) No match (V2 was not tested)

Track Peak [ CRC32 ] [W/O NULL] [ LOG ]
-- 95,5 [D8FB3573] [A0332CBD] CRC32
01 86,6 [344096F2] [A78A83FD]
02 80,8 [78776803] [64A0EFDF]
03 83,1 [F894B3B1] [95B8D689]
04 70,5 [CA56F8C7] [56E43BA9]
05 77,7 [9FF29018] [432E9122]
06 90,9 [C63FB919] [9DA7ACB8]
07 91,6 [3A9CC164] [708EA798]
08 82,0 [6B70352C] [6BCFC4C7]
09 95,5 [0735AD21] [7A12E124]

Pat Benatar - Seven The Hard Way (1985)

Pat Benatar - Seven The Hard Way (1985)

DOWNLOAD LINKS:
Buy Premium To Support Me & Get Resumable Support & Max Speed


Links are Interchangeable - No Password - Single Extraction

Direct Download

Tags: Benatar

Pat Benatar - Seven The Hard Way (1985) Download via Hotfile Rapidshare Fileserve Megaupload & FileSonic, Pat Benatar - Seven The Hard Way (1985) free torrent downloads included crack, serial, keygen.


Attention!Information

Members of Guest cannot leave comments.