Brother Jack McDuff - Screamin' (1962) {Prestige-OJC}

Download Now


Brother Jack McDuff - Screamin' (1962) {Prestige-OJC}
Brother Jack McDuff - Screamin' (1962) {Prestige-OJC}
EAC rip (secure mode) | FLAC (tracks)+CUE+LOG -> 181 Mb | MP3 @320 -> 74 Mb
Full Artwork @ 300 dpi (jpg) -> 9 Mb | 5% repair rar
© 1996 Prestige / Fantasy / OJC | OJCCD-875-2 (PR 7259)
Jazz / Soul Jazz / Hard Bop / Organ

"Organist Jack McDuff teams up with his regular drummer Joe Dukes, altoist Leo Wright, and guitarist Kenny Burrell for a spirited blues-oriented set that has been reissued on CD via the OJC imprint. "Soulful Drums," featuring Dukes' drum breaks, was a minor hit. Other selections on this generally fine organ date include spirited versions of "He's a Real Gone Guy," "After Hours," and "One O'Clock Jump," even if the title cut does not quite live up to its name."

Personnel:
Jack McDuff - organ
Leo Wright - alto saxophone
Kenny Burrell - guitar
Joe Dukes - drums

tracklist:
01. He's A Real Gone Guy
02. Soulful Drums
03. After Hours
04. Screamin'
05. I Cover The Waterfront
06. One O'Clock Jump

Exact Audio Copy V1.0 beta 3 from 29. August 2011

EAC extraction logfile from 9. January 2015, 7:36

Brother Jack McDuff / Screamin'

Used drive : SONY DVD RW DRU-810A Adapter: 1 ID: 0

Read mode : Secure
Utilize accurate stream : Yes
Defeat audio cache : Yes
Make use of C2 pointers : No

Read offset correction

: 618
Overread into Lead-In and Lead-Out : No
Fill up missing offset samples with silence : Yes
Delete leading and trailing silent blocks : No
Null samples used in CRC calculations : Yes
Used interface
: Native Win32 interface for Win NT & 2000
Gap handling
: Appended to previous track

Used output format : User Defined Encoder
Selected bitrate : 128 kBit/s
Quality : High
Add ID3 tag : No
Command line compressor : C:\Program Files (x86)\Exact Audio Copy\Flac\flac.exe
Additional command line options : -8 -V -T "ARTIST=%artist%" -T "TITLE=%title%" -T "ALBUM=%albumtitle%" -T "DATE=%year%" -T "TRACKNUMBER=%tracknr%" -T "TOTALTRACKS=%numtracks%" -T "GENRE=%genre%" -T "ALBUMARTIST=%albumartist%" -T "ALBUM ARTIST=%albumartist%" -T "COMMENT=EAC Secure Mode, Test & Copy, AccurateRip, FLAC -8" %source%

TOC of the extracted CD Track | Start | Length | Start sector | End sector
--1 | 0:00.00 | 6:04.65 | 0 | 27364 2 | 6:04.65 | 4:16.12 | 27365 | 46576 3 | 10:21.02 | 4:31.15 | 46577 | 66916 4 | 14:52.17 | 7:23.68 | 66917 | 100209 5 | 22:16.10 | 3:13.50 | 100210 | 114734 6 | 25:29.60 | 5:48.30 | 114735 | 140864

Track 1 Filename F:\New Rips\Brother Jack McDuff - Screamin' (1962) [FLAC]\01 - He's a Real Gone Guy.wav Pre-gap length 0:00:02.00 Peak level 90.1 %
Extraction speed 4.7 X
Track quality 99.9 %
Test CRC FE56B197
Copy CRC FE56B197
Accurately ripped (confidence 2) [3DC70E07] (AR v2)
Copy OK

Track 2 Filename F:\New Rips\Brother Jack McDuff - Screamin' (1962) [FLAC]\02 - Soulful Drums.wav Pre-gap length 0:00:01.63 Peak level 91.2 %
Extraction speed 5.6 X
Track quality 100.0 %
Test CRC F6D8C730
Copy CRC F6D8C730
Accurately ripped (confidence 2) [384EBFD1] (AR v2)
Copy OK

Track 3 Filename F:\New Rips\Brother Jack McDuff - Screamin' (1962) [FLAC]\03 - After Hours.wav Pre-gap length 0:00:01.37 Peak level 79.6 %
Extraction speed 6.0 X
Track quality 100.0 %
Test CRC 5D514974
Copy CRC 5D514974
Accurately ripped (confidence 2) [63D56CAA] (AR v2)
Copy OK

Track 4 Filename F:\New Rips\Brother Jack McDuff - Screamin' (1962) [FLAC]\04 - Screamin'.wav Pre-gap length 0:00:02.05 Peak level 71.4 %
Extraction speed 6.3 X
Track quality 99.9 %
Test CRC 9EE311C5
Copy CRC 9EE311C5
Accurately ripped (confidence 2) [124C2C28] (AR v2)
Copy OK

Track 5 Filename F:\New Rips\Brother Jack McDuff - Screamin' (1962) [FLAC]\05 - I Cover the Waterfront.wav Pre-gap length 0:00:02.40 Peak level 64.3 %
Extraction speed 6.6 X
Track quality 100.0 %
Test CRC 91B583AD
Copy CRC 91B583AD
Accurately ripped (confidence 2) [89FB8554] (AR v2)
Copy OK

Track 6 Filename F:\New Rips\Brother Jack McDuff - Screamin' (1962) [FLAC]\06 - One O'Clock Jump.wav Pre-gap length 0:00:02.18 Peak level 74.4 %
Extraction speed 7.5 X
Track quality 100.0 %
Test CRC E5A39F3E
Copy CRC E5A39F3E
Accurately ripped (confidence 2) [0B8DE98B] (AR v2)
Copy OK

All tracks accurately ripped

No errors occurred

End of status report

- CUETools DB Plugin V2.1.3

[CTDB TOCID: MgzT1n.MVZik6KgY4FBUb7hEKhE-] found, Submit result: MgzT1n.MVZik6KgY4FBUb7hEKhE- has been confirmed
[a72f7266] (4/4) Accurately ripped

==== Log checksum A83BF7398BC337E6659DAD53C5451F4F111B4FBBCF7C46F2F31DA7E261DA1F2F ====

Brother Jack McDuff - Screamin' (1962) {Prestige-OJC}

Brother Jack McDuff - Screamin' (1962) {Prestige-OJC}


DOWNLOAD LINKS:
Buy Premium To Support Me & Get Resumable Support & Max Speed


Links are Interchangeable - No Password - Single Extraction

Direct Download

Tags: Brother, McDuff, Screamin, Prestige

Brother Jack McDuff - Screamin' (1962) {Prestige-OJC} Download via Hotfile Rapidshare Fileserve Megaupload & FileSonic, Brother Jack McDuff - Screamin' (1962) {Prestige-OJC} free torrent downloads included crack, serial, keygen.


Attention!Information

Members of Guest cannot leave comments.