Metropolitan Hilarion Alfeyev - DE PROFUNDIS: Compositions for orchestra and choir (2015)

Download Now

Metropolitan Hilarion Alfeyev - DE PROFUNDIS: Compositions for orchestra and choir (2015)

Metropolitan Hilarion Alfeyev - DE PROFUNDIS: Compositions for orchestra and choir (2015)
Moscow Synodal Choir & Soloists; Russian National Orchestra, conducted by Hilarion Alfeyev

EAC | FLAC | Image (Cue&Log) ~ 394 Mb (incl 5%) | Mp3 (CBR320) ~ 210 Mb (incl 5%) | Scans included
Genre: Classical, Choral, Sacred | Label: Pentatone | # PTC 5186 486 | Time: 01:13:41

"Metropolitan Hilarion Alfeyev is one of the most widely performed of all living Russian composers. Each of his new compositions constitutes a milestone in contemporary musical history. His ability to imbue his music with profound religious content, to unite diverse cultures and styles, to invent new ways of musical expression while remaining faithful to the centuries-old classical tradition, and to utter most profound themes using a simple and comprehensible musical language, singles him out among present day composers. His most widely performed work, the St Matthew Passion (2006), has received worldwide recognition. Following its premiere in the Grand Hall of the Moscow Conservatory in March 2007, it has been performed more than seventy times in different countries by the most distinguished soloists, choirs and orchestras. Invariably it receives standing ovations from audiences at each concert. This SACD features five works by Metropolitan Hilarion that were produced over a thirty year period and performed by the excellent Russian National Orchestra."



Performers:

Svetlana Kasyan, soprano
Artyom Dervoed, guitar
Tatiana Porshneva, violin
Maxim Khokholkov, violin
Sergei Dubov, viola
Alexander Gotgelf, cello

Moscow Synodal Choir
Alexei Puzakov, concertmaster

Russian National Orchestra
Metropolitan Hilarion Alfeyev, conductor

Norbert Gembaczka, organ

Tracklist:

Stabat Mater
01. I. Stabat Mater (05:59)
02. II. Virgo virginum (05:30)
03. III. Sancta Mater (05:20)
04. IV. Paradisi gloria (05:34)

Concerto grosso
05. I. Adagio molto. Allegro (04:07)
06. II. Adagio (04:37)
07. III. Finale (02:53)

08. Fugue on the B-A-C-H Motif - Adagio molto (06:25)

Canciones de la muerte
09. Candil (02:04)
10. Canciуn de la muerte pequeсa (02:13)
11. Falseta (01:51)
12. Gasela de la muerte oscura (03:01)

De profundis
13. I. De profundis (Psalmus 129/130) (05:11)
14. II. Levavi oculos meos in montes (Psalmus 120/121) (05:24)
15. III. Super Flumina Babylonis (Psalmus 136/137) (03:47)
16. IV. Laudate nomen Domini (Psalmus 134/135) (04:28)
17. V. Alleluia (Psalmus 148-150) (05:07)


Exact Audio Copy V1.0 beta 4 from 7. December 2014

EAC extraction logfile from 16. October 2015, 20:42

Metropolitan Hilarion Alfeyev / De profundis

Used drive : TSSTcorpDVDWBD TS-LB23A Adapter: 1 ID: 0

Read mode : Secure
Utilize accurate stream : Yes
Defeat audio cache : Yes
Make use of C2 pointers : No

Read offset correction

: 6
Overread into Lead-In and Lead-Out : No
Fill up missing offset samples with silence : Yes
Delete leading and trailing silent blocks : No
Null samples used in CRC calculations : Yes
Used interface
: Native Win32 interface for Win NT & 2000

Used output format : User Defined Encoder
Selected bitrate : 128 kBit/s
Quality : High
Add ID3 tag : Yes
Command line compressor : C:\Program Files (x86)\Exact Audio Copy\Flac\flac.exe
Additional command line options : -T "COMMENT=Ripped by GFox" -V -8 %source%

TOC of the extracted CD Track | Start | Length | Start sector | End sector
--1 | 0:00.00 | 5:59.59 | 0 | 26983 2 | 5:59.59 | 5:30.68 | 26984 | 51801 3 | 11:30.52 | 5:20.43 | 51802 | 75844 4 | 16:51.20 | 5:34.20 | 75845 | 100914 5 | 22:25.40 | 4:07.65 | 100915 | 119504 6 | 26:33.30 | 4:37.28 | 119505 | 140307 7 | 31:10.58 | 2:53.66 | 140308 | 153348 8 | 34:04.49 | 6:25.66 | 153349 | 182289 9 | 40:30.40 | 2:04.65 | 182290 | 191654
10 | 42:35.30 | 2:13.02 | 191655 | 201631
11 | 44:48.32 | 1:51.69 | 201632 | 210025
12 | 46:40.26 | 3:01.39 | 210026 | 223639
13 | 49:41.65 | 5:11.07 | 223640 | 246971
14 | 54:52.72 | 5:24.65 | 246972 | 271336
15 | 60:17.62 | 3:47.72 | 271337 | 288433
16 | 64:05.59 | 4:28.13 | 288434 | 308546
17 | 68:33.72 | 5:07.07 | 308547 | 331578

Range status and errors

Selected range Filename D:\Downloads\Metropolitan Hilarion Alfeyev - De profundis.wav Peak level 98.4 %
Extraction speed 2.0 X
Range quality 100.0 %
Test CRC B5D7E33C
Copy CRC B5D7E33C
Copy OK

No errors occurred


AccurateRip summary

Track 1 not present in database
Track 2 not present in database
Track 3 not present in database
Track 4 not present in database
Track 5 not present in database
Track 6 not present in database
Track 7 not present in database
Track 8 not present in database
Track 9 not present in database
Track 10 not present in database
Track 11 not present in database
Track 12 not present in database
Track 13 not present in database
Track 14 not present in database
Track 15 not present in database
Track 16 not present in database
Track 17 not present in database

None of the tracks are present in the AccurateRip database

End of status report

==== Log checksum B072BB0EF51AECE6B25006CCD5362A7F4D32E9910CAD2A2A866D70B38DE09CC5 ====

foobar2000 1.2 / Dynamic Range Meter 1.1.1
log date: 2015-10-17 23:56:15

Analyzed: Metropolitan Hilarion Alfeyev / De profundis

DR Peak RMS Duration Track

DR12 -1.23 dB -19.58 dB 6:00 01-Stabat Mater - I. Stabat Mater
DR12 -1.51 dB -20.02 dB 5:31 02-Stabat Mater - II. Virgo virginum
DR13 -6.65 dB -25.53 dB 5:21 03-Stabat Mater - III. Sancta Mater
DR12 -0.86 dB -18.99 dB 5:34 04-Stabat Mater - IV. Paradisi gloria
DR11 -3.55 dB -19.65 dB 4:08 05-Concerto grosso - I. Adagio molto. Allegro
DR13 -4.35 dB -22.83 dB 4:37 06-Concerto grosso - II. Adagio
DR11 -3.29 dB -20.18 dB 2:54 07-Concerto grosso - III. Finale
DR12 -0.13 dB -17.58 dB 6:26 08-Fugue on the B-A-C-H Motif - Adagio molto
DR11 -3.96 dB -22.50 dB 2:05 09-Canciones de la muerte - Candil
DR12 -4.61 dB -22.78 dB 2:13 10-Canciones de la muerte - Canciуn de la muerte pequeсa
DR10 -3.21 dB -17.43 dB 1:52 11-Canciones de la muerte - Falseta
DR11 -3.36 dB -20.31 dB 3:02 12-Canciones de la muerte - Gasela de la muerte oscura
DR12 -2.83 dB -20.83 dB 5:11 13-De profundis - I. De profundis (Psalmus 129/130)
DR12 -7.56 dB -25.18 dB 5:25 14-De profundis - II. Levavi oculos meos in montes (Psalmus 120/121)
DR12 -8.59 dB -24.85 dB 3:48 15-De profundis - III. Super Flumina Babylonis (Psalmus 136/137)
DR12 -5.69 dB -22.27 dB 4:28 16-De profundis - IV. Laudate nomen Domini (Psalmus 134/135)
DR11 -0.92 dB -17.10 dB 5:07 17-De profundis - V. Alleluia (Psalmus 148-150)

Number of tracks: 17
Official DR value: DR12

Samplerate: 44100 Hz
Channels: 2
Bits per sample: 16
Bitrate: 652 kbps
Codec: FLAC

All thanks to original releaser - GFox
Password: designol

DOWNLOAD LINKS:
Buy Premium To Support Me & Get Resumable Support & Max Speed


Links are Interchangeable - No Password - Single Extraction

Direct Download

Tags: Metropolitan, Hilarion, Alfeyev, PROFUNDIS, Compositions, orchestra

Metropolitan Hilarion Alfeyev - DE PROFUNDIS: Compositions for orchestra and choir (2015) Download via Hotfile Rapidshare Fileserve Megaupload & FileSonic, Metropolitan Hilarion Alfeyev - DE PROFUNDIS: Compositions for orchestra and choir (2015) free torrent downloads included crack, serial, keygen.


Attention!Information

Members of Guest cannot leave comments.