Lynyrd Skynyrd - Family (2006)

Download Now

Lynyrd Skynyrd - Family (2006)

Lynyrd Skynyrd - Family (2006)
EAC Rip | FLAC (Img) + Cue + Log ~ 567 Mb | MP3 CBR320 ~ 190 Mb
Scans (JPG, 400 dpi) ~ 64 Mb | RAR 5% Recovery
Southern Rock, Hard Rock | Hip-O Records/Geffen Records #B0002855-02

"The rich, lengthy, and sometimes painful history of Lynyrd Skynyrd is not only one of the true epic tales of Southern rock, but in all of rock & roll itself. The early rise to fame, the tragic loss, and eventual rebirth of the group has been well documented over and over again in the form of box sets, greatest-hits collections, and deluxe reissues. But this sampler takes the best of the best and puts it all into one disc. The greatest moments of Skynyrd's career -- "Freebird," "Sweet Home Alabama," and "What's Your Name" -- are all here. But what makes Family truly special is the branching out into the side projects like .38 Special, Rossington Collins Band, and Van Zant to name but a few. This might not be the most comprehensive collection available, but it is certainly one of the more enjoyable and easily accessible."

Wiki | Discogs | All Music
***************

Lynyrd Skynyrd - Family (2006)

Track List:

01. Lynyrd Skynyrd - Gimme Three Steps [04:32]
02. Lynyrd Skynyrd - Free Bird [09:13]
03. Lynyrd Skynyrd - Sweet Home Alabama [04:46]
04. Lynyrd Skynyrd - Saturday Night Special [05:10]
05. Lynyrd Skynyrd - Whats Your Name [03:34]
06. 38 Special - What Can I Do [04:32]
07. 38 Special - Take Me Back [05:18]
08. Johnny Van Zant Band - Coming Home [04:07]
09. Rossington Collins Band - Don't Misunderstand Me [03:58]
10. Rossington Collins Band - Tashauna [04:57]
11. Allen Collins Band - Just Trouble [04:00]
12. The Rossington Band - Love Your Man [03:57]
13. Johnny Van Zant - Brickyard Road [07:16]
14. Van Zant - Get What You Got Comin' [04:17]
15. Van Zant - At Least I'm Free [04:57]
16. Lynyrd Skynyrd - Smokestack Lightnin' [04:30]

Exact Audio Copy V1.0 beta 3 from 29. August 2011

EAC extraction logfile from 14. October 2015, 0:20

Various / Family

Used drive : PIONEER BD-RW BDR-TD03 Adapter: 0 ID: 1

Read mode : Secure
Utilize accurate stream : Yes
Defeat audio cache : Yes
Make use of C2 pointers : No

Read offset correction

: 667
Overread into Lead-In and Lead-Out : No
Fill up missing offset samples with silence : Yes
Delete leading and trailing silent blocks : No
Null samples used in CRC calculations : Yes
Used interface
: Native Win32 interface for Win NT & 2000

Used output format : User Defined Encoder
Selected bitrate : 768 kBit/s
Quality : High
Add ID3 tag : No
Command line compressor : C:\Program Files (x86)\Exact Audio Copy\FLAC\FLAC.EXE
Additional command line options : -6 -V -T "ARTIST=%artist%" -T "TITLE=%title%" -T "ALBUM=%albumtitle%" -T "DATE=%year%" -T "TRACKNUMBER=%tracknr%" -T "GENRE=%genre%" -T "COMMENT=%comment%" -T "BAND=%albuminterpret%" -T "ALBUMARTIST=%albuminterpret%" -T "COMPOSER=%composer%" %haslyrics%--tag-from-file=LYRICS="%lyricsfile%"%haslyrics% -T "DISCNUMBER=%cdnumber%" -T "TOTALDISCS=%totalcds%" -T "TOTALTRACKS=%numtracks%" %hascover%--picture="%coverfile%"%hascover% %source% -o %dest%

TOC of the extracted CD Track | Start | Length | Start sector | End sector
--1 | 0:00.00 | 4:31.17 | 0 | 20341 2 | 4:31.17 | 9:12.55 | 20342 | 61796 3 | 13:43.72 | 4:45.20 | 61797 | 83191 4 | 18:29.17 | 5:09.43 | 83192 | 106409 5 | 23:38.60 | 3:33.04 | 106410 | 122388 6 | 27:11.64 | 4:31.23 | 122389 | 142736 7 | 31:43.12 | 5:17.50 | 142737 | 166561 8 | 37:00.62 | 4:06.23 | 166562 | 185034 9 | 41:07.10 | 3:57.52 | 185035 | 202861
10 | 45:04.62 | 4:56.73 | 202862 | 225134
11 | 50:01.60 | 3:59.17 | 225135 | 243076
12 | 54:01.02 | 3:56.30 | 243077 | 260806
13 | 57:57.32 | 7:15.05 | 260807 | 293436
14 | 65:12.37 | 4:16.68 | 293437 | 312704
15 | 69:29.30 | 4:56.70 | 312705 | 334974
16 | 74:26.25 | 4:29.60 | 334975 | 355209

Range status and errors

Selected range Filename C:\Users\Deris\Desktop\...\LyskFam\Various - Family.wav Peak level 99.9 %
Extraction speed 5.1 X
Range quality 100.0 %
Test CRC BCB0EBAC
Copy CRC BCB0EBAC
Copy OK

No errors occurred


AccurateRip summary

Track 1 accurately ripped (confidence 3) [58B53813] (AR v2)
Track 2 accurately ripped (confidence 3) [F22E995D] (AR v2)
Track 3 accurately ripped (confidence 3) [77F95F5D] (AR v2)
Track 4 accurately ripped (confidence 3) [E65DF228] (AR v2)
Track 5 accurately ripped (confidence 3) [D5DEA450] (AR v2)
Track 6 accurately ripped (confidence 3) [52892D85] (AR v2)
Track 7 accurately ripped (confidence 3) [EDEE6844] (AR v2)
Track 8 accurately ripped (confidence 3) [C6567617] (AR v2)
Track 9 accurately ripped (confidence 3) [3034EE84] (AR v2)
Track 10 accurately ripped (confidence 3) [26EEF343] (AR v2)
Track 11 accurately ripped (confidence 3) [2DFE2B47] (AR v2)
Track 12 accurately ripped (confidence 3) [18C53631] (AR v2)
Track 13 accurately ripped (confidence 3) [370A6132] (AR v2)
Track 14 accurately ripped (confidence 3) [259A06AE] (AR v2)
Track 15 accurately ripped (confidence 3) [C8AEAA2F] (AR v2)
Track 16 accurately ripped (confidence 3) [C7308CA3] (AR v2)

All tracks accurately ripped

End of status report

- CUETools DB Plugin V2.1.3

[CTDB TOCID: X8ZuyhymM106u_JutOv6dPa6ngU-] found, Submit result: X8ZuyhymM106u_JutOv6dPa6ngU- has been confirmed
[8f8b941c] (11/11) Accurately ripped

==== Log checksum 6B20849177C4C52E74A09BBFE8821B92F3F76F914BBD5C98BB9CDA38AA6E23E0 ====

foobar2000 1.2.6 / Dynamic Range Meter 1.1.1
log date: 2015-10-18 07:38:00

Analyzed: 38 Special / Family

DR Peak RMS Duration Track

DR8 -0.01 dB -9.10 dB 4:31 06-What Can I Do
DR6 -0.10 dB -8.62 dB 5:18 07-Take Me Back

Number of tracks: 2
Official DR value: DR7

Samplerate: 44100 Hz
Channels: 2
Bits per sample: 16
Bitrate: 957 kbps
Codec: FLAC

Analyzed: Lynyrd Skynyrd / Family (1) Allen Collins Band / Family (2)

DR Peak RMS Duration Track

DR9 -0.10 dB -9.91 dB 4:31 01-Gimme Three Steps
DR8 -0.10 dB -9.85 dB 3:59 11-Just Trouble

Number of tracks: 2
Official DR value: DR9

Samplerate: 44100 Hz
Channels: 2
Bits per sample: 16
Bitrate: 957 kbps
Codec: FLAC

Analyzed: Johnny Van Zant Band / Family (1) Johnny Van Zant / Family (2)

DR Peak RMS Duration Track

DR9 -0.10 dB -11.71 dB 4:06 08-Coming Home
DR8 -0.10 dB -11.26 dB 7:15 13-Brickyard Road

Number of tracks: 2
Official DR value: DR9

Samplerate: 44100 Hz
Channels: 2
Bits per sample: 16
Bitrate: 957 kbps
Codec: FLAC

Analyzed: Lynyrd Skynyrd / Family

DR Peak RMS Duration Track

DR6 -0.10 dB -7.85 dB 9:13 02-Free Bird
DR7 -0.10 dB -8.17 dB 4:45 03-Sweet Home Alabama
DR7 -0.10 dB -8.48 dB 5:10 04-Saturday Night Special
DR8 -0.10 dB -8.95 dB 3:33 05-Whats Your Name
DR7 -0.10 dB -8.38 dB 4:30 16-Smokestack Lightnin'

Number of tracks: 5
Official DR value: DR7

Samplerate: 44100 Hz
Channels: 2
Bits per sample: 16
Bitrate: 957 kbps
Codec: FLAC

Analyzed: Rossington Collins Band / Family (1-2) The Rossington Band / Family (3) Van Zant / Family (4-5)

DR Peak RMS Duration Track

DR7 -0.10 dB -8.43 dB 3:58 09-Don't Misunderstand Me
DR7 -0.10 dB -10.65 dB 4:57 10-Tashauna
DR8 -0.03 dB -10.01 dB 3:56 12-Love Your Man
DR7 -0.10 dB -8.32 dB 4:17 14-Get What You Got Comin'
DR6 -0.10 dB -7.21 dB 4:57 15-At Least I'm Free

Number of tracks: 5
Official DR value: DR7

Samplerate: 44100 Hz
Channels: 2
Bits per sample: 16
Bitrate: 957 kbps
Codec: FLAC

[CUETools log; Date: 18.10.2015 7:38:39; Version: 2.1.5]
[CTDB TOCID: X8ZuyhymM106u_JutOv6dPa6ngU-] found.
Track | CTDB Status
1 | (12/12) Accurately ripped
2 | (12/12) Accurately ripped
3 | (12/12) Accurately ripped
4 | (12/12) Accurately ripped
5 | (12/12) Accurately ripped
6 | (12/12) Accurately ripped
7 | (12/12) Accurately ripped
8 | (12/12) Accurately ripped
9 | (12/12) Accurately ripped
10 | (12/12) Accurately ripped
11 | (12/12) Accurately ripped
12 | (12/12) Accurately ripped
13 | (12/12) Accurately ripped
14 | (12/12) Accurately ripped
15 | (12/12) Accurately ripped
16 | (12/12) Accurately ripped
[AccurateRip ID: 002f8e80-0232015d-cd128010] found.
Track [ CRC | V2 ] Status
01 [fe9807ec|58b53813] (06+04/10) Accurately ripped
02 [5b9eec37|f22e995d] (06+04/10) Accurately ripped
03 [25cd60ac|77f95f5d] (06+04/10) Accurately ripped
04 [0eba7a95|e65df228] (06+04/10) Accurately ripped
05 [7be2cc87|d5dea450] (06+04/10) Accurately ripped
06 [41b0a084|52892d85] (06+04/10) Accurately ripped
07 [242ddf2c|edee6844] (06+04/10) Accurately ripped
08 [fb755cf3|c6567617] (06+04/10) Accurately ripped
09 5ef2cd5|3034ee84 (06+04/10) Accurately ripped
10 [52dd2828|26eef343] (06+04/10) Accurately ripped
11 [e254f854|2dfe2b47] (06+04/10) Accurately ripped
12 [7e5b21aa|18c53631] (05+04/09) Accurately ripped
13 [d43272a8|370a6132] (05+04/09) Accurately ripped
14 [d17eaff5|259a06ae] (06+04/10) Accurately ripped
15 [05575143|c8aeaa2f] (05+04/09) Accurately ripped
16 [31a03621|c7308ca3] (05+04/09) Accurately ripped

Track Peak [ CRC32 ] [W/O NULL] [ LOG ]
-- 99,9 CB0EBAC [5EEEFF36] CRC32
01 98,8 [34D4F30A] [41149582]
02 98,8 [54FEA5FB] [61927B94]
03 98,8 [F57B912E] [3D0F7E67]
04 98,8 [078DAD32] 220DB43
05 98,8 [EE0D17E1] [5599B97D]
06 99,9 [C7A64400] [59C3E57C]
07 98,8 D4DEA17 567397A
08 98,8 [CD2CD423] [589DA587]
09 98,8 [72DB2BC2] [831B2DB8]
10 98,8 [4FE43650] [31BC82AF]
11 98,8 [A4FBE7B5] [41C107A1]
12 99,6 3550868 [0CA1A43D]
13 98,8 [228378EE] [E48BCE6E]
14 98,8 [948B1F13] [3D100FC9]
15 98,8 [A5379163] [ACAE5A8B]
16 98,8 [7BCA0D76] [0F6FB6ED]

Lynyrd Skynyrd - Family (2006)

All thanks go to Boris1


DOWNLOAD LINKS:
Buy Premium To Support Me & Get Resumable Support & Max Speed


Links are Interchangeable - No Password - Single Extraction

Direct Download

Tags: Lynyrd, Skynyrd, Family

Lynyrd Skynyrd - Family (2006) Download via Hotfile Rapidshare Fileserve Megaupload & FileSonic, Lynyrd Skynyrd - Family (2006) free torrent downloads included crack, serial, keygen.


Attention!Information

Members of Guest cannot leave comments.