David Bowie - Space Oddity (1969) [EMI TOCP-70141, Japan]

Download Now

David Bowie - Space Oddity (1969) [EMI TOCP-70141, Japan]

David Bowie - Space Oddity (1969)
EAC | Flac(Image) + Cue + Log & MP3 CBR 320Kbps
2007 | EMI TOCP-70141 | ~ 289 or 109 Mb | Scans(600dpi, jpg) -> 90 Mb
Pop Rock / Experimental Rock / Psychedelic Rock

"Originally released as Man of Words/Man of Music, Space Oddity was David Bowie's first successful reinvention of himself. Abandoning both the mod and Anthony Newley fascinations that marked his earlier recordings, Bowie delves into a lightly psychedelic folk-rock, exemplified by the album's soaring title track..."


Tracklist:

01. Space Oddity 5:16
02. Unwashed And Somewhat Slightly Dazed 6:12
03. (Don't Sit Down) 0:44
04. Letter To Hermione 2:37
05. Cygnet Committee 9:36
06. Janine 3:25
07. An Occasional Dream 3:01
08. Wild Eyed Boy From Freecloud 4:52
09. God Knows I'm Good 3:22
10. Memory Of A Free Festival 7:09

Exact Audio Copy V1.1 from 23. June 2015

EAC extraction logfile from 17. October 2015, 1:07

David Bowie / Space Oddity (TOCP-70141)

Used drive : PLEXTOR DVDR PX-891SA Adapter: 1 ID: 0

Read mode : Secure
Utilize accurate stream : Yes
Defeat audio cache : Yes
Make use of C2 pointers : No

Read offset correction

: 6
Overread into Lead-In and Lead-Out : No
Fill up missing offset samples with silence : Yes
Delete leading and trailing silent blocks : No
Null samples used in CRC calculations : Yes
Used interface
: Native Win32 interface for Win NT & 2000

Used output format : User Defined Encoder
Selected bitrate : 128 kBit/s
Quality : High
Add ID3 tag : No
Command line compressor : C:\Program Files (x86)\Exact Audio Copy\Flac\flac.exe
Additional command line options : -V -8 -T "Genre=%genre%" -T "Artist=%artist%" -T "Title=%title%" -T "Album=%albumtitle%" -T "Date=%year%" -T "Tracknumber=%tracknr%" -T "Comment=%comment%" %source%

TOC of the extracted CD Track | Start | Length | Start sector | End sector
--1 | 0:00.00 | 5:16.25 | 0 | 23724 2 | 5:16.25 | 6:11.52 | 23725 | 51601 3 | 11:28.02 | 0:43.65 | 51602 | 54891 4 | 12:11.67 | 2:36.40 | 54892 | 66631 5 | 14:48.32 | 9:36.10 | 66632 | 109841 6 | 24:24.42 | 3:25.20 | 109842 | 125236 7 | 27:49.62 | 3:01.28 | 125237 | 138839 8 | 30:51.15 | 4:51.45 | 138840 | 160709 9 | 35:42.60 | 3:21.50 | 160710 | 175834
10 | 39:04.35 | 7:09.00 | 175835 | 208009

Range status and errors

Selected range Filename H:\dafnaplus\David Bowie\Space Oddity\David Bowie - Space Oddity (TOCP-70141).wav Peak level 96.6 %
Extraction speed 2.9 X
Range quality 100.0 %
Test CRC FF4BDF38
Copy CRC FF4BDF38
Copy OK

No errors occurred


AccurateRip summary

Track 1 accurately ripped (confidence 10) [0F95DB76] (AR v2)
Track 2 accurately ripped (confidence 10) [9AEFB576] (AR v2)
Track 3 accurately ripped (confidence 10) [4D8C28FF] (AR v2)
Track 4 accurately ripped (confidence 10) [77DF95A6] (AR v2)
Track 5 accurately ripped (confidence 10) C03BA18 (AR v2)
Track 6 accurately ripped (confidence 10) 575E955 (AR v2)
Track 7 accurately ripped (confidence 10) [1C3D635F] (AR v2)
Track 8 accurately ripped (confidence 10) B0ACFD0 (AR v2)
Track 9 accurately ripped (confidence 10) [3A9C596C] (AR v2)
Track 10 accurately ripped (confidence 10) [65A79F77] (AR v2)

All tracks accurately ripped

End of status report

- CUETools DB Plugin V2.1.6

[CTDB TOCID: Dp5v2EuVw9bfnV0TtSeAAAQ_p1k-] found
Submit result: Dp5v2EuVw9bfnV0TtSeAAAQ_p1k- has been confirmed
Track | CTDB Status
1 | (11/11) Accurately ripped
2 | (11/11) Accurately ripped
3 | (11/11) Accurately ripped
4 | (11/11) Accurately ripped
5 | (11/11) Accurately ripped
6 | (11/11) Accurately ripped
7 | (11/11) Accurately ripped
8 | (10/11) Accurately ripped
9 | (11/11) Accurately ripped
10 | (11/11) Accurately ripped

==== Log checksum 5917BADFB67947B84C834ADC6AD3542D76F762D43180C456D488FE210168D4B4 ====

foobar2000 1.2.9 / Dynamic Range Meter 1.1.1
log date: 2015-10-18 12:03:09

Analyzed: David Bowie / Space Oddity (TOCP-70141)

DR Peak RMS Duration Track

DR10 -0.74 dB -12.94 dB 5:16 01-Space Oddity
DR9 -0.48 dB -11.15 dB 6:12 02-Unwashed And Somewhat Slightly Dazed
DR11 -0.62 dB -15.31 dB 0:44 03-(Don't Sit Down)
DR11 -3.25 dB -16.28 dB 2:37 04-Letter To Hermione
DR10 -0.58 dB -13.09 dB 9:36 05-Cygnet Committee
DR10 -0.29 dB -13.37 dB 3:25 06-Janine
DR10 -1.15 dB -14.56 dB 3:01 07-An Occasional Dream
DR9 -1.04 dB -13.98 dB 4:52 08-Wild Eyed Boy From Freecloud
DR11 -1.15 dB -14.65 dB 3:22 09-God Knows I'm Good
DR9 -0.93 dB -13.58 dB 7:09 10-Memory Of A Free Festival

Number of tracks: 10
Official DR value: DR10

Samplerate: 44100 Hz
Channels: 2
Bits per sample: 16
Bitrate: 849 kbps
Codec: FLAC

[CUETools log; Date: 18.10.2015 11:58:50; Version: 2.1.4]
[CTDB TOCID: Dp5v2EuVw9bfnV0TtSeAAAQ_p1k-] found.
Track | CTDB Status
1 | (12/12) Accurately ripped
2 | (12/12) Accurately ripped
3 | (12/12) Accurately ripped
4 | (12/12) Accurately ripped
5 | (12/12) Accurately ripped
6 | (12/12) Accurately ripped
7 | (12/12) Accurately ripped
8 | (11/12) Accurately ripped
9 | (12/12) Accurately ripped
10 | (12/12) Accurately ripped
[AccurateRip ID: 001104bd-0087b73a-860ad50a] found.
Track [ CRC | V2 ] Status
01 [1cef73d5|0f95db76] (09+10/30) Accurately ripped
02 [d512440b|9aefb576] (08+10/29) Accurately ripped
03 [9145544a|4d8c28ff] (08+10/29) Accurately ripped
04 [190cde30|77df95a6] (08+10/29) Accurately ripped
05 [d126f9d4|bc03ba18] (08+10/27) Accurately ripped
06 [da277c56|b575e955] (08+10/27) Accurately ripped
07 [a4871c3f|1c3d635f] (08+10/29) Accurately ripped
08 [feb74f5f|bb0acfd0] (08+10/29) Accurately ripped
09 [ab486705|3a9c596c] (08+10/29) Accurately ripped
10 [a6c5c9ad|65a79f77] (08+10/29) Accurately ripped
Offsetted by 262:
01 [d448b8f3] (03/30) Accurately ripped
02 [f26912a9] (03/29) Accurately ripped
03 [703594d4] (03/29) Accurately ripped
04 [2d66e178] (03/29) Accurately ripped
05 [680a2312] (03/27) Accurately ripped
06 [07b37f18] (03/27) Accurately ripped
07 [808066c7] (03/29) Accurately ripped
08 [2f288fac] (03/29) Accurately ripped
09 [14de40de] (03/29) Accurately ripped
10 [19a5c51f] (03/29) Accurately ripped
Offsetted by 1334:
01 [9392cde3] (02/30) Accurately ripped
02 [3715fd17] (02/29) Accurately ripped
03 c7032a8 (02/29) Accurately ripped
04 [02d0a326] (02/29) Accurately ripped
05 [cd809902] (02/27) Accurately ripped
06 [9cee6928] (02/27) Accurately ripped
07 6610b07 (02/29) Accurately ripped
08 [3839cbea] (02/29) Accurately ripped
09 9710ea0 (02/29) Accurately ripped
10 [18b554af] (02/29) Accurately ripped
Offsetted by -1380:
01 [dfffd8e1] (00/30) No match (V2 was not tested)
02 [221e478b] (00/29) No match (V2 was not tested)
03 [1783b713] (00/29) No match (V2 was not tested)
04 [5054fd77] (00/29) No match (V2 was not tested)
05 [97228a20] (00/27) No match (V2 was not tested)
06 [c136640a] (00/27) No match (V2 was not tested)
07 [ac8b2e0f] (00/29) No match (V2 was not tested)
08 [6ffc32cf] (00/29) No match (V2 was not tested)
09 [9a922471] (00/29) No match (V2 was not tested)
10 [9202f341] (00/29) No match (V2 was not tested)
Offsetted by -673:
01 [692486b0] (00/30) No match (V2 was not tested)
02 [cfca0bc1] (00/29) No match (V2 was not tested)
03 [9905d632] (00/29) No match (V2 was not tested)
04 [1f481758] (00/29) No match (V2 was not tested)
05 [d07fb5ff] (00/27) No match (V2 was not tested)
06 [c1014e2b] (00/27) No match (V2 was not tested)
07 [aa1b4653] (00/29) No match (V2 was not tested)
08 [ae733596] (00/29) No match (V2 was not tested)
09 [d8500985] (00/29) No match (V2 was not tested)
10 [20ea1bba] (00/29) No match (V2 was not tested)

Track Peak [ CRC32 ] [W/O NULL] [ LOG ]
-- 96,6 [FF4BDF38] [224343C4] CRC32
01 91,8 [E788F3BA] C03100B
02 94,6 [4D9872B2] [0FCE809A]
03 93,1 [412E3E91] [6125BE3B]
04 68,7 [5540DF0B] [CBC8D0EE]
05 93,5 [22CA5666] [F3A54011]
06 96,6 [87B740C5] [E0534541]
07 87,5 [2F61DBE7] [88B39F97]
08 88,6 [1EB26FEC] 32D6C46
09 87,5 [4EC4E49D] [937DADB4]
10 89,8 [346B8178] [F083CC16]

David Bowie - Space Oddity (1969) [EMI TOCP-70141, Japan]

All thanks go to dafnaplus



Download David Bowie - Space Oddity (1969):


DOWNLOAD LINKS:


No Password

Direct Download

Tags: Oddity

David Bowie - Space Oddity (1969) [EMI TOCP-70141, Japan] Download via Hotfile Rapidshare Fileserve Megaupload & FileSonic, David Bowie - Space Oddity (1969) [EMI TOCP-70141, Japan] free torrent downloads included crack, serial, keygen.


Attention!Information

Members of Guest cannot leave comments.