Roine Stolt - The Flower King (1994) [2015, Belle Antique 152363, Japan]

Download Now

Roine Stolt - The Flower King (1994) [2015, Belle Antique 152363, Japan]

Roine Stolt - The Flower King (1994)
EAC | Flac(Image) + Cue + Log & MP3 CBR 320Kbps
Belle Antique, Belle 152363 | ~ 525 or 167 Mb | Scans(png) -> 437 Mb
Progressive Rock

"You may know Roine Stolt as the leader and guitar player of The Flower Kings, even though he has a rich and storied past in music since the 70's. You may be unaware that he filled important roles with other groups such as Kaipa and Fantasia. Stolt is another one of those legendary guitar maestros that started off playing the bass, which seems to be more common than not in the development of any artist that plays the six-string..."


Tracklist:

1. The Flower King (10:28)
2. Dissonata (9:57)
3. The Magic Circus Of Zeb (7:05)
4. Close Your Eyes (3:10)
5. The Pilgrims Inn (9:11)
6. The Sounds Of Violence (5:53)
7. Humanizzimo: (21:05)
- a) Twilight Flower
- b) The Messenger
- c) The Nail
- d) Only Human
- e) This Is The Night
- f) The Flower Of Love
8. Scanning The Greenhouse (3:32)

Musicians:

- Roine Stolt / lead voice (1-2,4,7-8), guitars, (all), bass (1-3,5-8), keyboards (all), percussion (3-4,7-8)
- Hans Fröberg / vocals (1,8)
- Ulf Wallander / soprano saxophone (5,7)
- Hasse Brunisson / drums (3,5,7-8), percussion
- Jaime Salazar / drums (1,2,6), percussion (2,6)
- Dexter Frank Jr. / keyboards, electronics
- Don Azzaro / bass guitar & Moog Taurus


Exact Audio Copy V1.0 beta 6 from 9. April 2015

EAC extraction logfile from 29. September 2015, 21:21

Roine Stolt / The Flower King

Used drive : TSSTcorpCDDVDW SH-S223C Adapter: 1 ID: 0

Read mode : Secure
Utilize accurate stream : Yes
Defeat audio cache : Yes
Make use of C2 pointers : No

Read offset correction

: 697
Overread into Lead-In and Lead-Out : No
Fill up missing offset samples with silence : Yes
Delete leading and trailing silent blocks : No
Null samples used in CRC calculations : Yes
Used interface
: Native Win32 interface for Win NT & 2000

Used output format : User Defined Encoder
Selected bitrate : 128 kBit/s
Quality : High
Add ID3 tag : No
Command line compressor : C:\Program Files (x86)\Exact Audio Copy\wavpack\wavpack.exe
Additional command line options : -hm -w "Year=%year%" -w "Genre=%genre%" %source% %dest%

TOC of the extracted CD Track | Start | Length | Start sector | End sector
--1 | 0:00.00 | 10:32.47 | 0 | 47446 2 | 10:32.47 | 10:02.60 | 47447 | 92656 3 | 20:35.32 | 7:06.43 | 92657 | 124649 4 | 27:42.00 | 3:12.12 | 124650 | 139061 5 | 30:54.12 | 9:20.20 | 139062 | 181081 6 | 40:14.32 | 5:41.45 | 181082 | 206701 7 | 45:56.02 | 20:53.48 | 206702 | 300724 8 | 66:49.50 | 3:45.07 | 300725 | 317606

Range status and errors

Selected range Filename D:\_NL+_\_CD\Roine Stolt - The Flower King.wav Peak level 98.1 %
Extraction speed 3.5 X
Range quality 100.0 %
Test CRC 151770BB
Copy CRC 151770BB
Copy OK

No errors occurred


AccurateRip summary

Track 1 cannot be verified as accurate (confidence 20) [392DC517], AccurateRip returned [172BDFB2] (AR v2)
Track 2 cannot be verified as accurate (confidence 20) [9D63D4BE], AccurateRip returned [554C6BF6] (AR v2)
Track 3 cannot be verified as accurate (confidence 20) [FC07E933], AccurateRip returned [03CE4C9A] (AR v2)
Track 4 cannot be verified as accurate (confidence 20) [38A22C2B], AccurateRip returned [540455E7] (AR v2)
Track 5 cannot be verified as accurate (confidence 20) [9B8E342C], AccurateRip returned [E797196F] (AR v2)
Track 6 cannot be verified as accurate (confidence 20) [DBADDE77], AccurateRip returned [439F2442] (AR v2)
Track 7 cannot be verified as accurate (confidence 20) [89C398CE], AccurateRip returned [274F830C] (AR v2)
Track 8 cannot be verified as accurate (confidence 20) [C0580BE7], AccurateRip returned [1D259B23] (AR v2)

No tracks could be verified as accurate
You may have a different pressing from the one(s) in the database

End of status report

- CUETools DB Plugin V2.1.6

[CTDB TOCID: NTdBuIu.mFh4N6JEcu_XNR1AvZ4-] found
Submit result: NTdBuIu.mFh4N6JEcu_XNR1AvZ4- has been confirmed
Track | CTDB Status
1 | ( 1/29) Accurately ripped
2 | ( 1/29) Accurately ripped
3 | ( 1/29) Accurately ripped
4 | ( 1/29) Accurately ripped
5 | ( 1/29) Accurately ripped
6 | ( 1/29) Accurately ripped
7 | ( 1/29) Accurately ripped
8 | ( 1/29) Accurately ripped

==== Log checksum 58B16768427FF7AC122038AE88473DBC73DF704082724CC8F3B5A0A5FC94981A ====

foobar2000 1.2.9 / Dynamic Range Meter 1.1.1
log date: 2015-10-18 15:12:09

Analyzed: Roine Stolt / The Flower King

DR Peak RMS Duration Track

DR6 -0.16 dB -8.17 dB 10:33 01-The Flower King
DR6 -0.16 dB -7.51 dB 10:03 02-Dissonata
DR5 -0.16 dB -7.29 dB 7:07 03-The Magic Circus of Zeb
DR9 -0.16 dB -13.42 dB 3:12 04-Close Your Eyes
DR6 -0.16 dB -9.14 dB 9:20 05-The Pilgrims Inn
DR6 -0.16 dB -9.05 dB 5:42 06-The Sounds of Violence
DR6 -0.16 dB -8.61 dB 20:54 07-Humanizzimo
DR6 -0.16 dB -7.64 dB 3:45 08-Scanning the Greenhouse

Number of tracks: 8
Official DR value: DR6

Samplerate: 44100 Hz
Channels: 2
Bits per sample: 16
Bitrate: 989 kbps
Codec: FLAC

[CUETools log; Date: 18.10.2015 15:11:55; Version: 2.1.4]
[CTDB TOCID: NTdBuIu.mFh4N6JEcu_XNR1AvZ4-] found.
Track | CTDB Status
1 | ( 2/30) Accurately ripped
2 | ( 2/30) Accurately ripped
3 | ( 2/30) Accurately ripped
4 | ( 2/30) Accurately ripped
5 | ( 2/30) Accurately ripped
6 | ( 2/30) Accurately ripped
7 | ( 2/30) Accurately ripped
8 | ( 2/30) Accurately ripped
[AccurateRip ID: 0015838c-008ee3dd-6a108a08] found.
Track [ CRC | V2 ] Status
01 [d34d03f0|392dc517] (00+00/78) No match
02 [26f0b6e4|9d63d4be] (00+00/78) No match
03 [d7f913da|fc07e933] (00+00/78) No match
04 [79d85df3|38a22c2b] (00+00/78) No match
05 [d1b4b661|9b8e342c] (00+00/78) No match
06 [a3fbb19b|dbadde77] (00+00/78) No match
07 [63ac537d|89c398ce] (00+00/77) No match
08 [d9f9a090|c0580be7] (00+00/77) No match

Track Peak [ CRC32 ] [W/O NULL] [ LOG ]
-- 98,1 [151770BB] [D3F2EFEC] CRC32
01 98,1 [D4C1A0F5] B3042DA
02 98,1 [3E6BEB2D] [685E9D33]
03 98,1 3FA60F4 [5D7B9FA0]
04 98,1 [4DC023D4] [3F63AA40]
05 98,1 [CAF53745] [321873E6]
06 98,1 [99B2BFC0] [0E01F0DB]
07 98,1 [446564C8] [A4B8AD9E]
08 98,1 [D265C11A] [190008E8]

Roine Stolt - The Flower King (1994) [2015, Belle Antique 152363, Japan]

All thanks go to tatuk



Download Roine Stolt - The Flower King (1994):

DOWNLOAD LINKS:


No Password

Direct Download

Tags: Flower, Antique

Roine Stolt - The Flower King (1994) [2015, Belle Antique 152363, Japan] Download via Hotfile Rapidshare Fileserve Megaupload & FileSonic, Roine Stolt - The Flower King (1994) [2015, Belle Antique 152363, Japan] free torrent downloads included crack, serial, keygen.


Attention!Information

Members of Guest cannot leave comments.