David Sylvian - Alchemy An Index Of Possibilities (1985) {2006 Virgin Remaster}

Download Now


David Sylvian - Alchemy An Index Of Possibilities (1985) {2006 Virgin Remaster}
David Sylvian - Alchemy An Index Of Possibilities (1985) {2006 Virgin Remaster}
EAC rip (secure mode) | FLAC (tracks)+CUE+LOG -> 248 Mb | MP3 @320 -> 116 Mb
Full Artwork @ 600 dpi (png) -> 185 Mb | 5% repair rar
© 2003, 2006 Virgin Records / EMI | 0946 363067 2 8
Rock / Art Rock / Experimental Rock / Experimental Ambient

"This reissue of Alchemy is a thoughtful one- comprising the original 1985 tape-only release that saw tracks Preperation for a Journey & Steel Cathedrals released alongside the Words with the Shaman ep with the hard to find b-sides to 1989's Pop Song single (found on the deleted Weatherbox set). As a collection of Sylvian's instrumental work, it blends together very well- though anyone who didn't enjoy his other instrumental work (the Czuckay albums Flux&Mutability / Plight&Premonition, the last sides of Gone to Earth) may not be that enamoured."

David Sylvian - Alchemy An Index Of Possibilities (1985) {2006 Virgin Remaster}


Personnel:
- David Sylvian / keyboards, guitar, tapes, digital percussion
- Steve Jansen / drums, percussion, additional keyboards
- Jon Hassell / trumpet
- Kenny Wheeler / flugelhorn
- Holger Czukay / radio, dictaphone
- Ryuichi Sakamoto / piano, strings
- Robert Fripp / guitar, frippertronics
- Masami Tsuchiya / guitar
- Percy Jones / fretless bass

tracklist:
01 - Words With The Shaman - Part 1 Ancient Evening
02 - Words With The Shaman - Part 2 Incantation
03 - Words With The Shaman - Part 3 Awakening (Songs From The Treetops)
04 - Preparations For A Journey
05 - The Stigma Of Childhood (Kin)
06 - A Brief Conversation Ending In Divorce
07 - Steel Cathedrals

Exact Audio Copy V1.1 from 23. June 2015

EAC extraction logfile from 13. October 2015, 19:25

David Sylvian / Alchemy: An Index Of Possibilities

Used drive : TSSTcorpCDDVDW SE-208DB Adapter: 7 ID: 0

Read mode : Secure
Utilize accurate stream : Yes
Defeat audio cache : Yes
Make use of C2 pointers : No

Read offset correction

: 6
Overread into Lead-In and Lead-Out : No
Fill up missing offset samples with silence : Yes
Delete leading and trailing silent blocks : No
Null samples used in CRC calculations : Yes
Used interface
: Installed external ASPI interface
Gap handling
: Appended to previous track

Used output format : User Defined Encoder
Selected bitrate : 1024 kBit/s
Quality : High
Add ID3 tag : No
Command line compressor : C:\Program Files (x86)\FLAC Frontend\tools\flac.exe
Additional command line options : -8 -V -T "ARTIST=%artist%" -T "TITLE=%title%" -T "ALBUM=%albumtitle%" -T "DATE=%year%" -T "TRACKNUMBER=%tracknr%" -T "TOTALTRACKS=%numtracks%" -T "GENRE=%genre%" -T "ALBUMARTIST=%albumartist%" -T "ALBUM ARTIST=%albumartist%" -T "COMMENT=EAC Secure Mode, Test & Copy, AccurateRip, FLAC -8" %source%

TOC of the extracted CD Track | Start | Length | Start sector | End sector
--1 | 0:00.00 | 5:15.63 | 0 | 23687 2 | 5:15.63 | 3:29.65 | 23688 | 39427 3 | 8:45.53 | 5:18.06 | 39428 | 63283 4 | 14:03.59 | 3:40.55 | 63284 | 79838 5 | 17:44.39 | 8:30.24 | 79839 | 118112 6 | 26:14.63 | 3:31.20 | 118113 | 133957 7 | 29:46.08 | 18:58.01 | 133958 | 219308

Track 1 Filename M:\_EAC\David Sylvian - Alchemy An Index Of Possibilities (1985) [FLAC] {2006 Virgin Remaster}\01 - Words With The Shaman - Part 1 Ancient Evening.wav Pre-gap length 0:00:02.00 Peak level 99.3 %
Extraction speed 1.0 X
Track quality 100.0 %
Test CRC CEE05B82
Copy CRC CEE05B82
Accurately ripped (confidence 19) [122AC32D] (AR v2)
Copy OK

Track 2 Filename M:\_EAC\David Sylvian - Alchemy An Index Of Possibilities (1985) [FLAC] {2006 Virgin Remaster}\02 - Words With The Shaman - Part 2 Incantation.wav Peak level 99.4 %
Extraction speed 1.1 X
Track quality 100.0 %
Test CRC DF02A5DC
Copy CRC DF02A5DC
Accurately ripped (confidence 19) [AD3FAB83] (AR v2)
Copy OK

Track 3 Filename M:\_EAC\David Sylvian - Alchemy An Index Of Possibilities (1985) [FLAC] {2006 Virgin Remaster}\03 - Words With The Shaman - Part 3 Awakening (Songs From The Treetops).wav Pre-gap length 0:00:02.28 Peak level 99.4 %
Extraction speed 1.1 X
Track quality 99.9 %
Test CRC AB446364
Copy CRC AB446364
Accurately ripped (confidence 19) [3A18F2FC] (AR v2)
Copy OK

Track 4 Filename M:\_EAC\David Sylvian - Alchemy An Index Of Possibilities (1985) [FLAC] {2006 Virgin Remaster}\04 - Preparations For A Journey.wav Peak level 84.1 %
Extraction speed 1.1 X
Track quality 99.9 %
Test CRC 71874FAC
Copy CRC 71874FAC
Accurately ripped (confidence 19) [6F9B31A7] (AR v2)
Copy OK

Track 5 Filename M:\_EAC\David Sylvian - Alchemy An Index Of Possibilities (1985) [FLAC] {2006 Virgin Remaster}\05 - The Stigma Of Childhood (Kin).wav Peak level 98.6 %
Extraction speed 1.5 X
Track quality 100.0 %
Test CRC 58B60B29
Copy CRC 58B60B29
Accurately ripped (confidence 19) [D8DE9EED] (AR v2)
Copy OK

Track 6 Filename M:\_EAC\David Sylvian - Alchemy An Index Of Possibilities (1985) [FLAC] {2006 Virgin Remaster}\06 - A Brief Conversation Ending In Divorce.wav Pre-gap length 0:00:01.46 Peak level 99.2 %
Extraction speed 1.4 X
Track quality 100.0 %
Test CRC 36063F4A
Copy CRC 36063F4A
Accurately ripped (confidence 18) DE0404F (AR v2)
Copy OK

Track 7 Filename M:\_EAC\David Sylvian - Alchemy An Index Of Possibilities (1985) [FLAC] {2006 Virgin Remaster}\07 - Steel Cathedrals.wav Pre-gap length 0:00:00.37 Peak level 99.4 %
Extraction speed 1.8 X
Track quality 100.0 %
Test CRC AC39CC37
Copy CRC AC39CC37
Accurately ripped (confidence 19) [AF18AE39] (AR v2)
Copy OK

All tracks accurately ripped

No errors occurred

End of status report

==== Log checksum 98CA6E87CE75335B06EC5997124975CF53293A5E5ADEC8BE4CF7B1C31F216808 ====

David Sylvian - Alchemy An Index Of Possibilities (1985) {2006 Virgin Remaster}

David Sylvian - Alchemy An Index Of Possibilities (1985) {2006 Virgin Remaster}


More Japan & David Sylvian 2006 Virgin Remasters:


DOWNLOAD:
Buy Premium From My Links To Get Resumable Support & Max Speed & To Support Me


Links are Interchangeable - No Password

Direct Download

Tags: Sylvian, Alchemy, Possibilities, Virgin, Remaster

David Sylvian - Alchemy An Index Of Possibilities (1985) {2006 Virgin Remaster} Download via Hotfile Rapidshare Fileserve Megaupload & FileSonic, David Sylvian - Alchemy An Index Of Possibilities (1985) {2006 Virgin Remaster} free torrent downloads included crack, serial, keygen.


Attention!Information

Members of Guest cannot leave comments.