Vikki Carr - The Best Of The Liberty Years (1989)

Download Now

Vikki Carr - The Best Of The Liberty Years (1989)

Vikki Carr - The Best Of The Liberty Years (1989)
EAC | FLAC | Tracks (Cue&Log) ~ 341 Mb (incl 5%) | Mp3 (CBR320) ~ 169 Mb (incl 5%) | Scans included
Genre: Vocal Pop, Traditional Pop, Latin Pop | Label: Liberty/EMI | # CDP 7 92071 2 | Time: 00:49:41

"This 1989 compilation was produced by the late Alan Dell a man of great taste in all things musical. He often played Vikki Carr on his BBC radio shows ad as part of his EMI compilation series focused on many top flight vocalists and this certainly applies to the legendary Miss Vikki Carr."

"Vikki Carr was born Florencia Bisenta di Casillas Martinez Cardona in El Paso, Texas, the eldest of seven children. From a very early age she showed talents for singing and performing, entertaining family and friends at her home, and making her stage debut at the age of four in a Christmas concert when she sang Adeste Fideles and Silent Night in Latin.

After graduating from High School young Florencia began working at a local bank but after auditioning successfully for an engagement with the Pepe Callahan Orchestra, a Mexican-lrish band, she threw in the job and went on the road for three years working in such places as Las Vegas, Hawaii, Lake Tahoe and Reno.

It was only a matter of time before the young singer went solo as a vocalist and after cutting a demo record, young Miss Vikki Carr as she now was, was signed to Liberty Records and began recording a long series of albums and singles for the label.

Apart from her recording commitments, Vikki continued to be a much indemand perfomer on the live circuit and on TV. She was the featured vocalist on Ray Anthony's TV show, and appeared on the Jimmy Dean and Hollywood Palace TV shows. She also appeared in musicals like Connecticut Yankee, Girl Crazy and Anything Goes.

Vikki Carr was never a regular top 30 chart artist, although It Must Be Him - written by Maurice Vidalin, Gilbert Becaud and Mack David - gave her a worldwide hit with global sales of more than one million, and she had minor hits with There I Go and the real tear-jerker, With Pen In Hand. She was however a consistent quality recording artist who during the late Sixties and through the Seventies made a stream of albums which consolidated her position as one of the top female American vocalists.

Vikki Carr -- The Liberty Years contains a liberal sampling of material that won her such a vast army of fans including her epic versions of other people's hits like You Don't Have To Say You Love Me, Goin' Out Of My Head, Can't Take My Eyes Off You, For Once In My Life and Anyone Who Had A Heart.

Underlining the depth and range of her style are recordings like Cuando Calienta El Sol, Meditation, Carnival and Michel Legrand's I Will Wait For You. The Lesson is another of those songs that she did so well in tear-jerking style. Vikki Carr was one of the first recording artists to start recording extensively in Spanish and it opened up a vast new market for her.

In recent years little has been heard of Vikki Carr as a recording artist which must be a big disappointment to her many fans. However this new collection gives the opportunity to wipe the dust off some of her golden oldies, and appreciate her vocal talents once again.

Chris White (CD liner notes)
"




Tracklist:

01. It Must Be Him (02:51)
02. Goin' Out Of My Head (03:31)
03. Surrey With The Fringe On Top (02:57)
04. Meditation (Bosanova) (03:24)
05. You Don't Have To Say You Love Me (02:39)
06. Can't Take My Eyes Off You (03:12)
07. With Pen In Hand (04:40)
08. Cuando Calienta El Sol (03:15)
09. I Will Wait For You (02:32)
10. Until It's Time For You To Go (02:52)
11. The Glory Of Love (03:21)
12. Carnival (A Day In The Life Of A Fool) (03:28)
13. The Lesson (02:34)
14. When In Rome (02:32)
15. There I Go (02:56)
16. For Once In My Life (02:49)


Exact Audio Copy V1.0 beta 3 from 29. August 2011

EAC extraction logfile from 25. November 2014, 21:26

Vikki Carr / The Best Of The Liberty Years

Used drive : Optiarc DVD RW AD-7280S Adapter: 3 ID: 0

Read mode : Secure
Utilize accurate stream : Yes
Defeat audio cache : Yes
Make use of C2 pointers : No

Read offset correction

: 48
Overread into Lead-In and Lead-Out : No
Fill up missing offset samples with silence : Yes
Delete leading and trailing silent blocks : No
Null samples used in CRC calculations : Yes
Used interface
: Native Win32 interface for Win NT & 2000
Gap handling
: Appended to previous track

Used output format : User Defined Encoder
Selected bitrate : 768 kBit/s
Quality : High
Add ID3 tag : No
Command line compressor : C:\Program Files\Exact Audio Copy\Flac\flac.exe
Additional command line options : -V -8 -T "Genre=%genre%" -T "Artist=%artist%" -T "Title=%title%" -T "Album=%albumtitle%" -T "Date=%year%" -T "Tracknumber=%tracknr%" -T "Comment=%comment%" %source%

TOC of the extracted CD Track | Start | Length | Start sector | End sector
--1 | 0:00.00 | 2:51.57 | 0 | 12881 2 | 2:51.57 | 3:31.15 | 12882 | 28721 3 | 6:22.72 | 2:57.55 | 28722 | 42051 4 | 9:20.52 | 3:24.68 | 42052 | 57419 5 | 12:45.45 | 2:39.42 | 57420 | 69386 6 | 15:25.12 | 3:12.63 | 69387 | 83849 7 | 18:38.00 | 4:40.00 | 83850 | 104849 8 | 23:18.00 | 3:15.05 | 104850 | 119479 9 | 26:33.05 | 2:32.02 | 119480 | 130881
10 | 29:05.07 | 2:52.38 | 130882 | 143819
11 | 31:57.45 | 3:21.67 | 143820 | 158961
12 | 35:19.37 | 3:28.70 | 158962 | 174631
13 | 38:48.32 | 2:34.03 | 174632 | 186184
14 | 41:22.35 | 2:32.17 | 186185 | 197601
15 | 43:54.52 | 2:56.53 | 197602 | 210854
16 | 46:51.30 | 2:49.52 | 210855 | 223581

Track 1 Filename D:\CD\Vikki Carr - The Best Of The Liberty Years (1989)\01. It Must Be Him.wav Pre-gap length 0:00:02.00 Peak level 85.2 %
Extraction speed 2.3 X
Track quality 100.0 %
Test CRC 485C81E4
Copy CRC 485C81E4
Track not present in AccurateRip database
Copy OK

Track 2 Filename D:\CD\Vikki Carr - The Best Of The Liberty Years (1989)\02. Goin' Out Of My Head.wav Pre-gap length 0:00:02.22 Peak level 86.3 %
Extraction speed 2.5 X
Track quality 100.0 %
Test CRC 9334A558
Copy CRC 9334A558
Track not present in AccurateRip database
Copy OK

Track 3 Filename D:\CD\Vikki Carr - The Best Of The Liberty Years (1989)\03. Surrey With The Fringe On Top.wav Pre-gap length 0:00:01.67 Peak level 94.0 %
Extraction speed 2.7 X
Track quality 100.0 %
Test CRC FD08EDC6
Copy CRC FD08EDC6
Track not present in AccurateRip database
Copy OK

Track 4 Filename D:\CD\Vikki Carr - The Best Of The Liberty Years (1989)\04. Meditation (Bosanova).wav Pre-gap length 0:00:02.22 Peak level 82.7 %
Extraction speed 2.9 X
Track quality 100.0 %
Test CRC C712016E
Copy CRC C712016E
Track not present in AccurateRip database
Copy OK

Track 5 Filename D:\CD\Vikki Carr - The Best Of The Liberty Years (1989)\05. You Don't Have To Say You Love Me.wav Pre-gap length 0:00:02.10 Peak level 88.6 %
Extraction speed 3.0 X
Track quality 100.0 %
Test CRC 6624D35B
Copy CRC 6624D35B
Track not present in AccurateRip database
Copy OK

Track 6 Filename D:\CD\Vikki Carr - The Best Of The Liberty Years (1989)\06. Can't Take My Eyes Off You.wav Pre-gap length 0:00:02.22 Peak level 88.7 %
Extraction speed 3.2 X
Track quality 100.0 %
Test CRC B20E2859
Copy CRC B20E2859
Track not present in AccurateRip database
Copy OK

Track 7 Filename D:\CD\Vikki Carr - The Best Of The Liberty Years (1989)\07. With Pen In Hand.wav Pre-gap length 0:00:02.45 Peak level 87.7 %
Extraction speed 3.5 X
Track quality 100.0 %
Test CRC 2290AB3E
Copy CRC 2290AB3E
Track not present in AccurateRip database
Copy OK

Track 8 Filename D:\CD\Vikki Carr - The Best Of The Liberty Years (1989)\08. Cuando Calienta El Sol.wav Pre-gap length 0:00:03.03 Peak level 83.2 %
Extraction speed 3.6 X
Track quality 100.0 %
Test CRC ACE53B5B
Copy CRC ACE53B5B
Track not present in AccurateRip database
Copy OK

Track 9 Filename D:\CD\Vikki Carr - The Best Of The Liberty Years (1989)\09. I Will Wait For You.wav Pre-gap length 0:00:02.73 Peak level 83.9 %
Extraction speed 3.0 X
Track quality 99.9 %
Test CRC 697CBBCC
Copy CRC 697CBBCC
Track not present in AccurateRip database
Copy OK

Track 10 Filename D:\CD\Vikki Carr - The Best Of The Liberty Years (1989)\10. Until It's Time For You To Go.wav Pre-gap length 0:00:03.35 Peak level 85.7 %
Extraction speed 3.7 X
Track quality 100.0 %
Test CRC F994DFB8
Copy CRC F994DFB8
Track not present in AccurateRip database
Copy OK

Track 11 Filename D:\CD\Vikki Carr - The Best Of The Liberty Years (1989)\11. The Glory Of Love.wav Pre-gap length 0:00:03.53 Peak level 100.0 %
Extraction speed 3.9 X
Track quality 100.0 %
Test CRC 3107EEFC
Copy CRC 3107EEFC
Track not present in AccurateRip database
Copy OK

Track 12 Filename D:\CD\Vikki Carr - The Best Of The Liberty Years (1989)\12. Carnival (A Day In The Life Of A Fool).wav Pre-gap length 0:00:03.20 Peak level 71.4 %
Extraction speed 4.1 X
Track quality 100.0 %
Test CRC 6CE55838
Copy CRC 6CE55838
Track not present in AccurateRip database
Copy OK

Track 13 Filename D:\CD\Vikki Carr - The Best Of The Liberty Years (1989)\13. The Lesson.wav Pre-gap length 0:00:03.60 Peak level 88.0 %
Extraction speed 3.4 X
Track quality 99.9 %
Test CRC 2B60B4AD
Copy CRC 2B60B4AD
Track not present in AccurateRip database
Copy OK

Track 14 Filename D:\CD\Vikki Carr - The Best Of The Liberty Years (1989)\14. When In Rome.wav Pre-gap length 0:00:03.58 Peak level 92.7 %
Extraction speed 4.1 X
Track quality 100.0 %
Test CRC 6455CC37
Copy CRC 6455CC37
Track not present in AccurateRip database
Copy OK

Track 15 Filename D:\CD\Vikki Carr - The Best Of The Liberty Years (1989)\15. There I Go.wav Pre-gap length 0:00:03.35 Peak level 89.5 %
Extraction speed 4.3 X
Track quality 100.0 %
Test CRC 4BD4ABF6
Copy CRC 4BD4ABF6
Track not present in AccurateRip database
Copy OK

Track 16 Filename D:\CD\Vikki Carr - The Best Of The Liberty Years (1989)\16. For Once In My Life.wav Pre-gap length 0:00:03.68 Peak level 88.8 %
Extraction speed 4.3 X
Track quality 100.0 %
Test CRC DEF73E00
Copy CRC DEF73E00
Track not present in AccurateRip database
Copy OK

None of the tracks are present in the AccurateRip database

No errors occurred

End of status report

- CUETools DB Plugin V2.1.3

[CTDB TOCID: XE41xA80rvLD8WyX.htXhW0dL64-] found, Submit result: already submitted
[0d5668d6] (1/1) Accurately ripped

==== Log checksum EAB4FFC961FA992DD5FB0DEA8A9608E7C5F776735B3500EA4D31FE9DE67E1210 ====

foobar2000 1.2 / Dynamic Range Meter 1.1.1
log date: 2015-10-19 18:31:13

Analyzed: Vikki Carr / The Best Of The Liberty Years

DR Peak RMS Duration Track

DR13 -1.38 dB -17.53 dB 2:52 01-It Must Be Him
DR12 -1.28 dB -17.13 dB 3:31 02-Goin' Out Of My Head
DR12 -0.53 dB -18.41 dB 2:58 03-Surrey With The Fringe On Top
DR11 -1.64 dB -15.44 dB 3:25 04-Meditation (Bosanova)
DR12 -1.04 dB -17.44 dB 2:40 05-You Don't Have To Say You Love Me
DR14 -1.04 dB -20.23 dB 3:13 06-Can't Take My Eyes Off You
DR12 -1.13 dB -17.54 dB 4:40 07-With Pen In Hand
DR12 -1.59 dB -16.86 dB 3:15 08-Cuando Calienta El Sol
DR13 -1.52 dB -17.01 dB 2:32 09-I Will Wait For You
DR12 -1.34 dB -17.35 dB 2:53 10-Until It's Time For You To Go
DR11 0.00 dB -15.96 dB 3:22 11-The Glory Of Love
DR11 -2.93 dB -17.56 dB 3:29 12-Carnival (A Day In The Life Of A Fool)
DR12 -1.10 dB -17.67 dB 2:34 13-The Lesson
DR12 -0.65 dB -16.57 dB 2:32 14-When In Rome
DR12 -0.95 dB -16.43 dB 2:57 15-There I Go
DR14 -1.02 dB -19.26 dB 2:50 16-For Once In My Life

Number of tracks: 16
Official DR value: DR12

Samplerate: 44100 Hz
Channels: 2
Bits per sample: 16
Bitrate: 736 kbps
Codec: FLAC

Vikki Carr - The Best Of The Liberty Years (1989)

Vikki Carr - The Best Of The Liberty Years (1989)

All thanks to original releaser - bachelor-62
Password: designol

DOWNLOAD:
Buy Premium From My Links To Get Resumable Support & Max Speed & To Support Me


Links are Interchangeable - No Password

Direct Download

Tags: Liberty

Vikki Carr - The Best Of The Liberty Years (1989) Download via Hotfile Rapidshare Fileserve Megaupload & FileSonic, Vikki Carr - The Best Of The Liberty Years (1989) free torrent downloads included crack, serial, keygen.


Attention!Information

Members of Guest cannot leave comments.