Golden Earring - Switch (1974/2001)

Download Now

Golden Earring - Switch (1974/2001)

Golden Earring - Switch (1974/2001)
EAC Rip | FLAC (Img) + Cue + Log ~ 283 Mb | MP3 CBR320 ~ 116 Mb
Scans Included (JPG, 600 dpi) | RAR 5% Recovery
Progressive Rock, Hard Rock | Red Bullet #RB 66.207

"After the success of Moontan, Golden Earring could have easily parlayed its success into international stardom by continuing to play up that album's commercial elements. Instead, the group did an about-face, pursuing uncommercial song themes and pushing the prog rock side of its sound to the fore (this move included the addition of Dutch prog rock keyboardist Robert Jan Stips, formerly of Supersister, to the lineup). The band even lampooned the sexy cover art of its recent hit album with a similar cover that replaced the gorgeous showgirl on Moontan with a marionette. The result is an album that lacks the consistent sound and coherence of Moontan, but makes up for it with an adventurous spirit and plenty of instrumental firepower..."

Wiki | Discogs | All Music
***************

Golden Earring - Switch (1974/2001)

Track List:

01. Intro: Plus Minus Absurdio [03:09]
02. Love is a Rodeo [03:38]
03. The Switch [05:28]
04. Kill me (Ce Soir) [06:23]
05. Tons of time [04:21]
06. Daddy's gonna save my soul [04:16]
07. Troubles and Hassles [04:21]
08. The Lonesome D.J. [04:37]

Exact Audio Copy V1.0 beta 1 from 15. November 2010

EAC extraction logfile from 18. October 2015, 15:49

Golden Earring / Switch

Used drive : MATSHITADVD-RAM UJ8A0AS Adapter: 0 ID: 1

Read mode : Secure
Utilize accurate stream : Yes
Defeat audio cache : Yes
Make use of C2 pointers : No

Read offset correction

: 102
Overread into Lead-In and Lead-Out : No
Fill up missing offset samples with silence : Yes
Delete leading and trailing silent blocks : No
Null samples used in CRC calculations : Yes
Used interface
: Native Win32 interface for Win NT & 2000

Used output format : Internal WAV Routines
Sample format : 44.100 Hz; 16 Bit; Stereo

TOC of the extracted CD Track | Start | Length | Start sector | End sector
--1 | 0:00.00 | 3:08.25 | 0 | 14124 2 | 3:08.25 | 3:37.05 | 14125 | 30404 3 | 6:45.30 | 5:27.30 | 30405 | 54959 4 | 12:12.60 | 6:22.32 | 54960 | 83641 5 | 18:35.17 | 4:20.40 | 83642 | 103181 6 | 22:55.57 | 4:15.20 | 103182 | 122326 7 | 27:11.02 | 4:20.38 | 122327 | 141864 8 | 31:31.40 | 4:36.47 | 141865 | 162611

Range status and errors

Selected range Filename C:\Users\Alex\Music\Alexharvey\Golden Earring - Switch.wav Peak level 99.2 %
Extraction speed 0.1 X
Range quality 100.0 %
Test CRC 0B95D463
Copy CRC 0B95D463
Copy OK

No errors occurred


AccurateRip summary

Track 1 accurately ripped (confidence 5) [D993CC4A]
Track 2 accurately ripped (confidence 5) [61FECD0C]
Track 3 accurately ripped (confidence 5) [FC998E2D]
Track 4 accurately ripped (confidence 5) [4C4066C8]
Track 5 accurately ripped (confidence 5) [A5F9B8FD]
Track 6 accurately ripped (confidence 5) 083BBFC
Track 7 accurately ripped (confidence 5) [96BD3FC0]
Track 8 accurately ripped (confidence 5) [84C0429F]

All tracks accurately ripped

End of status report

==== Log checksum CEF7FDE7954E2E21A30ABE6DD91312EFC1D2D7014C8B9C24831B4E4ACB0C833E ====

foobar2000 1.2.6 / Dynamic Range Meter 1.1.1
log date: 2015-10-19 01:47:53

Analyzed: Golden Earring / Switch

DR Peak RMS Duration Track

DR8 -0.15 dB -10.68 dB 3:08 01-Intro: Plus Minus Absurdio
DR8 -0.22 dB -10.27 dB 3:37 02-Love is a Rodeo
DR8 -0.30 dB -11.26 dB 5:27 03-The Switch
DR8 -0.06 dB -10.84 dB 6:22 04-Kill me (Ce Soir)
DR9 -0.29 dB -11.41 dB 4:21 05-Tons of time
DR8 -0.19 dB -11.25 dB 4:15 06-Daddy's gonna save my soul
DR9 -0.18 dB -11.58 dB 4:21 07-Troubles and Hassles
DR9 -0.22 dB -11.44 dB 4:37 08-The Lonesome D.J.

Number of tracks: 8
Official DR value: DR8

Samplerate: 44100 Hz
Channels: 2
Bits per sample: 16
Bitrate: 937 kbps
Codec: FLAC

[CUETools log; Date: 19.10.2015 1:47:50; Version: 2.1.5]
[CTDB TOCID: pCJxklujAmz9gKiTt8B0_ABbx1w-] found.
Track | CTDB Status
1 | (15/17) Accurately ripped
2 | (17/17) Accurately ripped
3 | (17/17) Accurately ripped
4 | (16/17) Accurately ripped
5 | (17/17) Accurately ripped
6 | (16/17) Accurately ripped
7 | (16/17) Accurately ripped
8 | (16/17) Accurately ripped
[AccurateRip ID: 000ae19e-0049b85d-63087808] found.
Track [ CRC | V2 ] Status
01 [d993cc4a|94e2f4f7] (04+05/20) Accurately ripped
02 [61fecd0c|206215bd] (04+05/21) Accurately ripped
03 [fc998e2d|b5a7a4ea] (04+05/21) Accurately ripped
04 [4c4066c8|24e3cca1] (04+05/21) Accurately ripped
05 [a5f9b8fd|e6aa2409] (04+05/21) Accurately ripped
06 083bbfc|af6f50bf (04+05/20) Accurately ripped
07 [96bd3fc0|b686e975] (04+05/21) Accurately ripped
08 [84c0429f|69dcae7e] (02+05/19) Accurately ripped
Offsetted by 664:
01 [c4e31a12] (04/20) Accurately ripped
02 [983890bc] (04/21) Accurately ripped
03 [a85c0c3d] (04/21) Accurately ripped
04 [11b36260] (04/21) Accurately ripped
05 [d64b1515] (04/21) Accurately ripped
06 [34368129] (03/20) Accurately ripped
07 [2739d843] (04/21) Accurately ripped
08 [fda8563f] (04/19) Accurately ripped

Track Peak [ CRC32 ] [W/O NULL] [ LOG ]
-- 99,2 [0B95D463] B406A62 CRC32
01 98,3 [9CB00CA5] [3A5C99D2]
02 97,4 6B85689 [2DDE09B0]
03 96,5 [73234291] [167A6DD8]
04 99,2 [87F51E36] [70729354]
05 96,7 [AEAD3A34] [1D78E55A]
06 97,8 [ABBE90DE] [8A0AA56C]
07 97,9 C4334A6 118F5C7
08 97,5 [80EEC457] [C75BAD53]

Golden Earring - Switch (1974/2001)

DOWNLOAD LINKS:
Buy Premium To Support Me & Get Resumable Support & Max Speed


Links are Interchangeable - No Password - Single Extraction

Direct Download

Tags: Golden, Earring, Switch

Golden Earring - Switch (1974/2001) Download via Hotfile Rapidshare Fileserve Megaupload & FileSonic, Golden Earring - Switch (1974/2001) free torrent downloads included crack, serial, keygen.


Attention!Information

Members of Guest cannot leave comments.