King Crimson - Absent Lovers: Live In Montreal 1984 (1998) (Enhanced CD)

Download Now

King Crimson - Absent Lovers: Live In Montreal 1984 (1998) (Enhanced CD)

King Crimson - Absent Lovers: Live In Montreal 1984 (1998) (Enhanced CD)
Rock | 2cd | EAC Rip | Flac + Cue + Log | covers
Discipline Global Mobile, DGM9804 | rel: 1998 | 840Mb

After three years and four albums, the '80s incarnation of King Crimson, featuring Adrian Belew (guitar/vocals/drums), Bill Bruford (drums/percussion), Robert Fripp (guitar) and Tony Levin (bass/stick/synth/vocal) wrapped up their initial collaborative efforts at the conclusion of their 1984 North American tour. Absent Lovers (1998) presents the July 11, 1984 parting performance at the Spectrum in Montreal, Quebec in its entirety.
As the show was simulcast on FM radio, decent sounding copies have been traded amongst the faithful for years, although not in such stunning fidelity or completeness. While the contents draw primarily from the Discipline (1981), Beat (1982) and Three of a Perfect Pair (1984) long-players, the quartet likewise dip into the vintage Krim catalog. Searing and nimble readings of the title instrumental from the LP Red (1974), as well as the second movement of Larks' Tongues in Aspic (1973) are rendered with arguably more energy and aggression than the decade-old originals. They also equal the intensity of recent arrivals "Thela Hun Ginjeet" and "Sleepless," especially with the addition of Belew's incisive lyrics and duelling fretwork with Fripp. Belew's versatility is prominent as he counters with the gorgeous "Matte Kudasai," the surreal automobile anthem "Dig Me" and the intricately entwined melodies heard in "Frame by Frame," "Three of a Perfect Pair" and "Elephant Talk." The formidable rhythm section are accounted for with Levin commanding the lower registers and providing the occasional backing vocal. While he is flawless throughout, his contributions to "Sleepless" and "Industry" are nothing short of definitive and helped delineate the resonance of this lineup. Overall, Absent Lovers is a perfect way for enthusiasts to remember this aggregate or for the curious to hear what all the fuss is about. ~Allmusic

Track listing
cd1:
01. Entry Of The Crims (6:27)
02. Larks' Tongues In Aspic (Part III) (5:05)
03. Thela Hun Gingeet (7:07)
04. Red (5:49)
05. Matte Kudasai (3:46)
06. Industry (7:31)
07. Dig Me (4:00)
08. Three Of A Perfect Pair (4:31)
09. Indiscipline (8:12)
~ (52:28)

cd2:
01. Sartori In Tangier (4:41)
02. Frame By Frame (3:58)
03. Man With An Open Heart (3:45)
04. Waiting Man (6:26)
05. Sleepless (6:08)
06. Larks' Tongues In Aspic (Part II) (7:55)
07. Discipline (5:04)
08. Heartbeat (5:15)
09. Elephant Talk (8:57)
~ (52:09)

Personnel
- Robert Fripp - Electric guitar, Guitar synthesizer, Mixing, Mastering, Production
- Adrian Belew - Electric guitar, Drums, Vocals
- Tony Levin - Bass guitar, Chapman Stick, Synthesizer, Backing Vocals, Photography
- Bill Bruford - Drums, Electronic drums, Percussion

Exact Audio Copy V1.0 beta 3 from 29. August 2011

EAC extraction logfile from 27. April 2014, 14:05

King Crimson / Absent Lovers: Live in Montreal 1984 (Disc 1)

Used drive : PLEXTOR CD-R PX-240A Adapter: 6 ID: 1

Read mode : Secure
Utilize accurate stream : Yes
Defeat audio cache : Yes
Make use of C2 pointers : No

Read offset correction

: 6
Overread into Lead-In and Lead-Out : No
Fill up missing offset samples with silence : Yes
Delete leading and trailing silent blocks : No
Null samples used in CRC calculations : Yes
Used interface
: Installed external ASPI interface

Used output format : Internal WAV Routines
Sample format : 44.100 Hz; 16 Bit; Stereo

TOC of the extracted CD Track | Start | Length | Start sector | End sector
--1 | 0:00.00 | 6:27.05 | 0 | 29029 2 | 6:27.05 | 5:05.20 | 29030 | 51924 3 | 11:32.25 | 7:07.10 | 51925 | 83959 4 | 18:39.35 | 5:49.22 | 83960 | 110156 5 | 24:28.57 | 3:45.45 | 110157 | 127076 6 | 28:14.27 | 7:31.08 | 127077 | 160909 7 | 35:45.35 | 3:59.52 | 160910 | 178886 8 | 39:45.12 | 4:30.60 | 178887 | 199196 9 | 44:15.72 | 8:12.03 | 199197 | 236099
10 | 55:00.00 | 12:12.61 | 247500 | 302460

Range status and errors

Selected range Filename Z:\data\hexonut\Seeding\King Crimson\1998-Absent Lovers (Live In Montreal 1984)\Absent Lovers - Live in Montreal 1984 (Disc 1).wav Peak level 100.0 %
Extraction speed 5.7 X
Range quality 99.9 %
Test CRC 1A5089F3
Copy CRC 1A5089F3
Copy OK

No errors occurred


AccurateRip summary

Track 1 accurately ripped (confidence 15) [CB588658] (AR v2)
Track 2 accurately ripped (confidence 15) [E0FF03FA] (AR v2)
Track 3 accurately ripped (confidence 15) [1413E445] (AR v2)
Track 4 accurately ripped (confidence 14) [4DA8197C] (AR v2)
Track 5 accurately ripped (confidence 14) [DD896AE9] (AR v2)
Track 6 accurately ripped (confidence 14) [8473459F] (AR v2)
Track 7 accurately ripped (confidence 15) [4823C890] (AR v2)
Track 8 accurately ripped (confidence 15) [AFCF3512] (AR v2)
Track 9 accurately ripped (confidence 14) [F3BD624B] (AR v2)

All tracks accurately ripped

End of status report

==== Log checksum 5C2F1A7AE6300B7AC476584EC6078A9537D86637D8E0FB779B1441A1C36A6467 ====
--

Exact Audio Copy V1.0 beta 3 from 29. August 2011

EAC extraction logfile from 27. April 2014, 17:43

King Crimson / Absent Lovers: Live in Montreal 1984 (Disc 2)

Used drive : PLEXTOR CD-R PX-240A Adapter: 6 ID: 1

Read mode : Secure
Utilize accurate stream : Yes
Defeat audio cache : Yes
Make use of C2 pointers : No

Read offset correction

: 6
Overread into Lead-In and Lead-Out : No
Fill up missing offset samples with silence : Yes
Delete leading and trailing silent blocks : No
Null samples used in CRC calculations : Yes
Used interface
: Installed external ASPI interface

Used output format : Internal WAV Routines
Sample format : 44.100 Hz; 16 Bit; Stereo

TOC of the extracted CD Track | Start | Length | Start sector | End sector
--1 | 0:00.32 | 4:40.60 | 32 | 21091 2 | 4:41.17 | 3:57.43 | 21092 | 38909 3 | 8:38.60 | 3:44.67 | 38910 | 55776 4 | 12:23.52 | 6:26.10 | 55777 | 84736 5 | 18:49.62 | 6:08.13 | 84737 | 112349 6 | 24:58.00 | 7:54.42 | 112350 | 147941 7 | 32:52.42 | 5:04.23 | 147942 | 170764 8 | 37:56.65 | 5:15.25 | 170765 | 194414 9 | 43:12.15 | 8:57.00 | 194415 | 234689

Range status and errors

Selected range Filename Z:\data\hexonut\Seeding\King Crimson\1998-Absent Lovers (Live In Montreal 1984)\Absent Lovers - Live in Montreal 1984 (Disc 2).wav Peak level 100.0 %
Extraction speed 9.2 X
Range quality 100.0 %
Test CRC 45236457
Copy CRC 45236457
Copy OK

No errors occurred


AccurateRip summary

Track 1 accurately ripped (confidence 13) [99C131C5] (AR v2)
Track 2 accurately ripped (confidence 13) [233599A8] (AR v2)
Track 3 accurately ripped (confidence 13) [658124BD] (AR v2)
Track 4 accurately ripped (confidence 13) [4A4B33FC] (AR v2)
Track 5 accurately ripped (confidence 13) [3138B6FE] (AR v2)
Track 6 accurately ripped (confidence 13) [EFA93636] (AR v2)
Track 7 accurately ripped (confidence 13) [0FAD03EE] (AR v2)
Track 8 accurately ripped (confidence 13) [456D7E83] (AR v2)
Track 9 accurately ripped (confidence 13) [6FB459A8] (AR v2)

All tracks accurately ripped

End of status report

==== Log checksum 9B8E113EDD287AE9CB217CA4F46DC3C91745A73580142E573B62F699CE286936 ====

[CUETools log; Date: 2015.10.19. 8:46:31; Version: 2.1.5]
CD-Extra data track length 12:12:61.
[CTDB TOCID: mxhcIwN_rwHLo487GjXcVN9Km8U-] found.
Track | CTDB Status
1 | (54/54) Accurately ripped
2 | (54/54) Accurately ripped
3 | (53/54) Accurately ripped
4 | (54/54) Accurately ripped
5 | (53/54) Accurately ripped
6 | (26/54) Accurately ripped, or (25/54) differs in 38 samples @06:20:58, or (1/54) differs in 38 samples @06:20:58
7 | (53/54) Accurately ripped, or (1/54) differs in 2 samples @03:10:49
8 | (53/54) Accurately ripped
9 | (53/54) Accurately ripped
[AccurateRip ID: 0012f9d4-008cf50c-8e0fc00a] found.
Track [ CRC | V2 ] Status
01 [0eb9717d|cb588658] (031+021/124) Accurately ripped
02 [06f89f31|e0ff03fa] (031+021/126) Accurately ripped
03 [c9541573|1413e445] (030+021/123) Accurately ripped
04 [9f3506d0|4da8197c] (030+020/123) Accurately ripped
05 [9c296665|dd896ae9] (031+020/124) Accurately ripped
06 [1294e7b3|8473459f] (031+020/122) Accurately ripped
07 [98aa514f|4823c890] (031+021/124) Accurately ripped
08 [da69a0f1|afcf3512] (031+021/125) Accurately ripped
09 [5ed73ec5|f3bd624b] (029+020/122) Accurately ripped
Offsetted by -396:
01 [1597f11d] (003/124) Accurately ripped
02 [d375b35b] (003/126) Accurately ripped
03 [9b3d3b40] (003/123) Accurately ripped
04 [d363b7a7] (003/123) Accurately ripped
05 [1d6213e0] (003/124) Accurately ripped
06 [10366fa2] (003/122) Accurately ripped
07 [fd56e251] (003/124) Accurately ripped
08 [5f53114c] (003/125) Accurately ripped
09 [857b55dc] (003/122) Accurately ripped
Offsetted by -1975:
01 [dddb94f5] (005/124) Accurately ripped
02 [cf55030f] (005/126) Accurately ripped
03 [3078c180] (005/123) Accurately ripped
04 [674dcd0d] (005/123) Accurately ripped
05 [13b95b9e] (005/124) Accurately ripped
06 [a618cf96] (000/122) No match (V2 was not tested)
07 [1017937f] (005/124) Accurately ripped
08 [132fdb89] (005/125) Accurately ripped
09 [36c0c957] (005/122) Accurately ripped
Offsetted by -1306:
01 23a1ebd (005/124) Accurately ripped
02 [eb807110] (005/126) Accurately ripped
03 [ef77ef5b] (005/123) Accurately ripped
04 [5ba2686c] (004/123) Accurately ripped
05 [7595d034] (005/124) Accurately ripped
06 [27ad31ec] (000/122) No match (V2 was not tested)
07 [1e9b1961] (005/124) Accurately ripped
08 [5e846681] (004/125) Accurately ripped
09 [81f2c288] (005/122) Accurately ripped
Offsetted by -647:
01 [64e3c4c7] (004/124) Accurately ripped
02 [08b0f426] (004/126) Accurately ripped
03 [070c4b80] (004/123) Accurately ripped
04 [329814ff] (004/123) Accurately ripped
05 [075152cf] (004/124) Accurately ripped
06 [35e3ea05] (000/122) No match (V2 was not tested)
07 [84dc1167] (004/124) Accurately ripped
08 [51cfbf72] (004/125) Accurately ripped
09 [eeecce3f] (004/122) Accurately ripped
Offsetted by -646:
01 [04f45139] (021/124) Accurately ripped
02 [d6970738] (022/126) Accurately ripped
03 [eff87a96] (020/123) Accurately ripped
04 [c6b09c6d] (022/123) Accurately ripped
05 [a8650cb4] (022/124) Accurately ripped
06 [45d3caed] (000/122) No match (V2 was not tested)
07 [0dc75e1a] (020/124) Accurately ripped
08 [84d5335f] (022/125) Accurately ripped
09 [dee84f70] (021/122) Accurately ripped

Track Peak [ CRC32 ] [W/O NULL] [ LOG ]
-- 100,0 [1A5089F3] [C6CBFD45] CRC32
01 80,1 [E8DB9F75] 3DA9541
02 89,9 [AB577144] [3CC75E01]
03 94,4 [D74CE649] [559EC5EE]
04 100,0 [545589D7] 63D0917
05 66,1 [25A23D4E] [790A2519]
06 89,6 [AE854369] [96725777]
07 94,4 [70237BE2] [5DC2A0A5]
08 90,9 [2558F18D] [852E8489]
09 91,2 3839B1F [D453E07D]

-
[CUETools log; Date: 2015.10.19. 8:48:49; Version: 2.1.5]
Pregap length 00:00:32.
[CTDB TOCID: 1AZjxkHLCnPm74CTzqupyGY03xo-] found.
Track | CTDB Status
1 | (12/12) Accurately ripped
2 | (12/12) Accurately ripped
3 | (12/12) Accurately ripped
4 | (12/12) Accurately ripped
5 | (12/12) Accurately ripped
6 | (12/12) Accurately ripped
7 | (12/12) Accurately ripped
8 | (12/12) Accurately ripped
9 | (12/12) Accurately ripped
[AccurateRip ID: 00102f66-0079bccc-6e0c3909] found.
Track [ CRC | V2 ] Status
01 69fbf91|99c131c5 (36+23/62) Accurately ripped
02 [0230546a|233599a8] (37+23/63) Accurately ripped
03 [f22ab22c|658124bd] (37+23/63) Accurately ripped
04 [ee0b08b0|4a4b33fc] (37+23/63) Accurately ripped
05 [d4442a10|3138b6fe] (37+23/63) Accurately ripped
06 [0c116b43|efa93636] (36+23/62) Accurately ripped
07 [ea534710|0fad03ee] (37+23/63) Accurately ripped
08 [fe193a54|456d7e83] (37+23/63) Accurately ripped
09 [d305f9dd|6fb459a8] (37+23/63) Accurately ripped
Offsetted by -681:
01 [e7c2419a] (03/62) Accurately ripped
02 [954badb7] (03/63) Accurately ripped
03 [da7617bf] (03/63) Accurately ripped
04 [737d3c72] (03/63) Accurately ripped
05 [6c99b4c7] (03/63) Accurately ripped
06 [fbea95d3] (03/62) Accurately ripped
07 [9975c2ec] (03/63) Accurately ripped
08 [72d00dc6] (03/63) Accurately ripped
09 [0892575c] (03/63) Accurately ripped

Track Peak [ CRC32 ] [W/O NULL] [ LOG ]
-- 100,0 [45236457] BEBA97C CRC32
01 87,3 [6CA8CCE4] [8F11529B]
02 100,0 [1B142117] [15E3D173]
03 96,5 [E69D1BD9] [7887D3A1]
04 89,2 [4AA6C337] [59E1CDE9]
05 80,0 [404FBB79] [4B289F72]
06 84,4 [450E3AFD] [E3A33A00]
07 82,4 [FAFA9FC3] [625C7C15]
08 100,0 [99C1BCFD] [471B325E]
09 97,7 [0BDAF2FB] [050CE60E]

Thx to hexonut
password: asd
Download:
Buy Premium To Support Me & Get Resumable Support & Max Speed


Links are Interchangeable - No Password

Direct Download

Tags: Crimson, Absent, Lovers, Montreal, Enhanced

King Crimson - Absent Lovers: Live In Montreal 1984 (1998) (Enhanced CD) Download via Hotfile Rapidshare Fileserve Megaupload & FileSonic, King Crimson - Absent Lovers: Live In Montreal 1984 (1998) (Enhanced CD) free torrent downloads included crack, serial, keygen.


Attention!Information

Members of Guest cannot leave comments.