The Flower Kings: 4CD (1995-1997) [2015, Belle Antique, Japan]

Download Now

The Flower Kings: 4CD (1995-1997) [2015, Belle Antique, Japan]

The Flower Kings: 4CD (1995-1997)
EAC | Flac(Image) + Cue + Log & MP3 CBR 320Kbps
4CD | Belle Antique | ~ 1935 or 640 Mb | Scans(png) -> 1277 Mb
Progressive Rock

"Sweden played a crucial part in the progressive rock revival of the 1990s, but amid dark-sounding King Crimson-influenced bands like Anekdoten and Anglagard, the positive-thinking Yes-enlightened act the Flower Kings felt almost out of place. Yet, the Flower Kings became, along with the American Spock's Beard, the '90s prog rock band with the largest fan base, the biggest sales, and the widest international appeal..."

The Flower Kings: 4CD (1995-1997) [2015, Belle Antique, Japan]

at Wiki | at Discogs | at Allmusic

***********
The Flower Kings: 4CD (1995-1997):

The Flower Kings: 4CD (1995-1997) [2015, Belle Antique, Japan]

CD01: The Flower Kings - Back In The World Of Adventures (1995)
EAC | Flac(Image) + Cue + Log & MP3 CBR 320Kbps
Belle Antique 152364 | ~ 519 or 169 Mb | Scans(png) -> 408 Mb
Progressive Rock

"Roine Stolt's voice is strong, full, passionate, and delightfully accented. The Flower Kings' lyrics are heady, compelling, and hook city. The guitar work is extremely melodic and rates right up there with anything Brian May or David Gilmour has offered. Stolt is expertly meshed in this band with brother Michael on bass and voice. Tomas Bodin excels on Hammond organ, Mellotron, piano, and flute. Hans Bruniusson plays percussion alongside Jaime Salazar on drum kit, while Ulf Wallander guests on sax. The ten songs here are split between five instrumentals and five featuring great vocals mingled with extended instrumental bridges and a variety of sonic excursions. Each piece is a rocking, swirling matrix of multifaceted sound, with the opening "World of Adventures" a particular highlight. Take the best of Crack the Sky, Pink Floyd, early Genesis, and the slick cool pop/rock of Queen and Prince's 1999, mix everything together in the cauldron of Stolt's vision of world peace, and out comes a fresh batch of magic.


by John W. Patterson, AMG
"


Tracklist:

1. World Of Adventure (13:37)
2. Atomic Prince / Kaleidoscope (6:02)
3. Go West Judas (7:40)
4. Train To Nowhere (3:45)
5. Oblivion Road (3:45)
6. Theme For A Hero (8:27)
7. Temple Of The Snakes (1:38)
8. My Cosmic Lover (6:40)
9. The Wonder Wheel (4:12)
10. Big Puzzle (13:35)

Exact Audio Copy V1.0 beta 6 from 9. April 2015

EAC extraction logfile from 29. September 2015, 20:43

The Flower Kings / Back In The World Of Adventures

Used drive : TSSTcorpCDDVDW SH-S223C Adapter: 1 ID: 0

Read mode : Secure
Utilize accurate stream : Yes
Defeat audio cache : Yes
Make use of C2 pointers : No

Read offset correction

: 697
Overread into Lead-In and Lead-Out : No
Fill up missing offset samples with silence : Yes
Delete leading and trailing silent blocks : No
Null samples used in CRC calculations : Yes
Used interface
: Native Win32 interface for Win NT & 2000

Used output format : User Defined Encoder
Selected bitrate : 128 kBit/s
Quality : High
Add ID3 tag : No
Command line compressor : C:\Program Files (x86)\Exact Audio Copy\wavpack\wavpack.exe
Additional command line options : -hm -w "Year=%year%" -w "Genre=%genre%" %source% %dest%

TOC of the extracted CD Track | Start | Length | Start sector | End sector
--1 | 0:00.00 | 13:37.10 | 0 | 61284 2 | 13:37.10 | 7:49.37 | 61285 | 96496 3 | 21:26.47 | 7:47.18 | 96497 | 131539 4 | 29:13.65 | 3:49.67 | 131540 | 148781 5 | 33:03.57 | 3:47.48 | 148782 | 165854 6 | 36:51.30 | 8:32.62 | 165855 | 204316 7 | 45:24.17 | 1:23.60 | 204317 | 210601 8 | 46:48.02 | 6:46.58 | 210602 | 241109 9 | 53:34.60 | 4:17.20 | 241110 | 260404
10 | 57:52.05 | 13:34.60 | 260405 | 321514

Range status and errors

Selected range Filename D:\_NL+_\_CD\The Flower Kings - Back In The World Of Adventures.wav Peak level 100.0 %
Extraction speed 5.0 X
Range quality 100.0 %
Test CRC 662FAC77
Copy CRC 662FAC77
Copy OK

No errors occurred


AccurateRip summary

Track 1 cannot be verified as accurate (confidence 22) [739371C3], AccurateRip returned [7A304D2A] (AR v2)
Track 2 cannot be verified as accurate (confidence 21) [DFA20E25], AccurateRip returned [66C080ED] (AR v2)
Track 3 cannot be verified as accurate (confidence 22) [40DA2E6E], AccurateRip returned [D2B335D5] (AR v2)
Track 4 cannot be verified as accurate (confidence 22) [9392243A], AccurateRip returned [2B3D6296] (AR v2)
Track 5 cannot be verified as accurate (confidence 22) [77DC7249], AccurateRip returned [A19E205F] (AR v2)
Track 6 cannot be verified as accurate (confidence 22) AC21DC7, AccurateRip returned [D0F55B2E] (AR v2)
Track 7 cannot be verified as accurate (confidence 22) [93F7BB3C], AccurateRip returned 90720FC (AR v2)
Track 8 cannot be verified as accurate (confidence 22) [1B568A81], AccurateRip returned [6615525D] (AR v2)
Track 9 cannot be verified as accurate (confidence 22) [31119152], AccurateRip returned [7AA76DF0] (AR v2)
Track 10 cannot be verified as accurate (confidence 22) [169C3C76], AccurateRip returned [3558E3A1] (AR v2)

No tracks could be verified as accurate
You may have a different pressing from the one(s) in the database

End of status report

- CUETools DB Plugin V2.1.6

[CTDB TOCID: jwoe4MG2_q3KLwFcCJ5tHKUzmTs-] found
Submit result: jwoe4MG2_q3KLwFcCJ5tHKUzmTs- has been confirmed
Track | CTDB Status
1 | ( 2/61) Accurately ripped
2 | ( 2/61) Accurately ripped
3 | ( 2/61) Accurately ripped
4 | ( 2/61) Accurately ripped
5 | ( 2/61) Accurately ripped
6 | ( 2/61) Accurately ripped
7 | ( 2/61) Accurately ripped
8 | ( 2/61) Accurately ripped
9 | ( 2/61) Accurately ripped
10 | ( 2/61) Accurately ripped

==== Log checksum 9EAA6CDF25E3E09C078C3EC3C17D0E90310C49292C7B890C3B312A90BD4E26A3 ====

foobar2000 1.2.9 / Dynamic Range Meter 1.1.1
log date: 2015-10-19 14:02:13

Analyzed: The Flower Kings / Back In The World Of Adventures

DR Peak RMS Duration Track

DR7 0.00 dB -8.91 dB 13:37 01-World Of Adventures
DR7 0.00 dB -11.40 dB 7:49 02-Atomic Prince - Kaleidoscope
DR7 0.00 dB -8.61 dB 7:47 03-Go West Judas
DR9 0.00 dB -13.16 dB 3:50 04-Train To Nowhere
DR13 0.00 dB -14.95 dB 3:48 05-Oblivion Road
DR6 0.00 dB -8.15 dB 8:33 06-Theme For A Hero
DR9 -2.11 dB -15.90 dB 1:24 07-Temple Of The Snakes
DR6 0.00 dB -7.01 dB 6:47 08-My Cosmic Lover
DR9 0.00 dB -13.40 dB 4:17 09-The Wonder Wheel
DR6 0.00 dB -8.88 dB 13:35 10-Big Puzzle

Number of tracks: 10
Official DR value: DR8

Samplerate: 44100 Hz
Channels: 2
Bits per sample: 16
Bitrate: 985 kbps
Codec: FLAC

[CUETools log; Date: 19.10.2015 14:02:29; Version: 2.1.4]
[CTDB TOCID: jwoe4MG2_q3KLwFcCJ5tHKUzmTs-] found.
Track | CTDB Status
1 | ( 3/66) Accurately ripped
2 | ( 3/66) Accurately ripped
3 | ( 3/66) Accurately ripped
4 | ( 3/66) Accurately ripped
5 | ( 3/66) Accurately ripped
6 | ( 3/66) Accurately ripped
7 | ( 3/66) Accurately ripped
8 | ( 3/66) Accurately ripped
9 | ( 3/66) Accurately ripped
10 | ( 3/66) Accurately ripped
[AccurateRip ID: 001c1af4-00d731da-9210be0a] found.
Track [ CRC | V2 ] Status
01 [93b5e6e0|739371c3] (000+000/122) No match
02 [489ea2b4|dfa20e25] (000+000/119) No match
03 [96d0f29d|40da2e6e] (000+000/119) No match
04 [5f8354ac|9392243a] (000+000/121) No match
05 [aa3155a1|77dc7249] (000+000/121) No match
06 [d011c63e|bac21dc7] (000+000/120) No match
07 [0d04efa6|93f7bb3c] (000+000/120) No match
08 [f7178af2|1b568a81] (000+000/121) No match
09 [df8f4caa|31119152] (000+000/121) No match
10 a01753f|169c3c76 (000+000/122) No match

Track Peak [ CRC32 ] [W/O NULL] [ LOG ]
-- 100,0 [662FAC77] [C4F3773B] CRC32
01 100,0 [5F519B0D] [E2A01EE8]
02 100,0 [0080B0C7] [C916D42C]
03 100,0 [4AF676B1] FAAAF17
04 100,0 [FF708370] [2321E516]
05 100,0 [6BD081AD] [AD48307A]
06 100,0 [05F8EEE0] [40F1B340]
07 78,3 [233C3198] [9577CA6B]
08 100,0 [3E26E6F9] [DEBC86F4]
09 100,0 [6B057431] [EC863E82]
10 100,0 B7981FE [AEBC8A14]

* * * * *

The Flower Kings: 4CD (1995-1997) [2015, Belle Antique, Japan]

CD02: The Flower Kings - Retropolis (1996)
EAC | Flac(Image) + Cue + Log & MP3 CBR 320Kbps
Belle Antique 152365 | ~ 496 or 163 Mb | Scans(png) -> 377 Mb
Progressive Rock

"Retropolis is the album that brought the Flower Kings from an interesting underground progressive rock band to an act that simply couldn't be ignored by anyone interested in the genre's 1990s revival. Roine Stolt and consorts' aim for Retropolis was to dive a little more into vintage progressive forms (retro) and, indeed, this album is the most nostalgic and closer-to-the-roots-sounding of the band's catalog. From the Pink Floyd-shaped "Rhythm of the Sea" to the poignant Yes-like hymn "There Is More to This World," the Flower Kings sound like they are paying tribute to the groups that brought them to do what they are doing, without ever falling into plagiarism or sacrificing the band's own identity. "Melting Pot," "The Judas Kiss," and the powerful instrumental "Retropolis" are the album's other highlights. Very strong composition-wise, Retropolis lacked some cohesion. It is one of the band's most song-oriented albums (with The Flower King). In comparison, the following effort Stardust We Are will have a stronger identity but at times weaker material.


by François Couture, AMG
"


Tracklist:

1. Rhythm Of Life (0:32)
2. Retropolis (11:07)
3. Rhythm Of The Sea (6:12)
4. There Is More To This World (10:15)
5. Romancing The City (0:57)
6. The Melting Pot (5:45)
7. Silent Sorrow (7:42)
8. The Judas Kiss (7:43)
9. Retropolis By Night (3:18)
10. Flora Majora (6:50)
11. The Road Back Home (8:55)

Exact Audio Copy V1.0 beta 6 from 9. April 2015

EAC extraction logfile from 29. September 2015, 22:22

The Flower Kings / Retropolis

Used drive : TSSTcorpCDDVDW SH-S223C Adapter: 1 ID: 0

Read mode : Secure
Utilize accurate stream : Yes
Defeat audio cache : Yes
Make use of C2 pointers : No

Read offset correction

: 697
Overread into Lead-In and Lead-Out : No
Fill up missing offset samples with silence : Yes
Delete leading and trailing silent blocks : No
Null samples used in CRC calculations : Yes
Used interface
: Native Win32 interface for Win NT & 2000

Used output format : User Defined Encoder
Selected bitrate : 128 kBit/s
Quality : High
Add ID3 tag : No
Command line compressor : C:\Program Files (x86)\Exact Audio Copy\wavpack\wavpack.exe
Additional command line options : -hm -w "Year=%year%" -w "Genre=%genre%" %source% %dest%

TOC of the extracted CD Track | Start | Length | Start sector | End sector
--1 | 0:00.00 | 0:28.35 | 0 | 2134 2 | 0:28.35 | 11:07.65 | 2135 | 52224 3 | 11:36.25 | 6:13.30 | 52225 | 80229 4 | 17:49.55 | 10:07.17 | 80230 | 125771 5 | 27:56.72 | 0:53.40 | 125772 | 129786 6 | 28:50.37 | 5:48.43 | 129787 | 155929 7 | 34:39.05 | 7:38.37 | 155930 | 190316 8 | 42:17.42 | 7:39.13 | 190317 | 224754 9 | 49:56.55 | 3:06.32 | 224755 | 238736
10 | 53:03.12 | 6:49.10 | 238737 | 269421
11 | 59:52.22 | 8:57.13 | 269422 | 309709

Range status and errors

Selected range Filename D:\_NL+_\_CD\The Flower Kings - Retropolis.wav Peak level 89.1 %
Extraction speed 4.9 X
Range quality 99.9 %
Test CRC 960617EB
Copy CRC 960617EB
Copy OK

No errors occurred


AccurateRip summary

Track 1 cannot be verified as accurate (confidence 36) [64E46432], AccurateRip returned [0C569D62] (AR v2)
Track 2 cannot be verified as accurate (confidence 36) [42364A54], AccurateRip returned [7C46F75B] (AR v2)
Track 3 cannot be verified as accurate (confidence 35) [A3A58019], AccurateRip returned [5AEA1BB2] (AR v2)
Track 4 cannot be verified as accurate (confidence 37) [76964B83], AccurateRip returned [D2139505] (AR v2)
Track 5 cannot be verified as accurate (confidence 36) [AC60606F], AccurateRip returned [28948622] (AR v2)
Track 6 cannot be verified as accurate (confidence 35) [DD95A54C], AccurateRip returned AA56268 (AR v2)
Track 7 cannot be verified as accurate (confidence 36) [293B71BD], AccurateRip returned [FDBC3FA0] (AR v2)
Track 8 cannot be verified as accurate (confidence 36) 1515ACD, AccurateRip returned [FA0D8231] (AR v2)
Track 9 cannot be verified as accurate (confidence 35) [AFD3EBF5], AccurateRip returned [4017BBAC] (AR v2)
Track 10 cannot be verified as accurate (confidence 36) [69B4666C], AccurateRip returned [03D458E4] (AR v2)
Track 11 cannot be verified as accurate (confidence 36) [7AC39183], AccurateRip returned [C3B68200] (AR v2)

No tracks could be verified as accurate
You may have a different pressing from the one(s) in the database

End of status report

- CUETools DB Plugin V2.1.6

[CTDB TOCID: J_52HXdn8LtnJWQXYIPVn_w4A0Q-] found
Submit result: J_52HXdn8LtnJWQXYIPVn_w4A0Q- has been confirmed
Track | CTDB Status
1 | ( 1/45) Accurately ripped
2 | ( 1/45) Accurately ripped
3 | ( 1/45) Accurately ripped
4 | ( 1/45) Accurately ripped
5 | ( 1/45) Accurately ripped
6 | ( 1/45) Accurately ripped
7 | ( 1/45) Accurately ripped
8 | ( 1/45) Accurately ripped
9 | ( 1/45) Accurately ripped
10 | ( 1/45) Accurately ripped
11 | ( 1/45) Accurately ripped

==== Log checksum 28164EA1F016602B69CCEFA2CA264D2C5F9696B423CC291D8218997E0CC7CF7A ====

foobar2000 1.2.9 / Dynamic Range Meter 1.1.1
log date: 2015-10-19 14:02:46

Analyzed: The Flower Kings / Retropolis

DR Peak RMS Duration Track

DR18 -3.49 dB -24.78 dB 0:28 01-Rhythm Of Life
DR6 -1.00 dB -9.37 dB 11:08 02-Retropolis
DR7 -1.00 dB -12.48 dB 6:13 03-Rhythm Of The Sea
DR6 -1.00 dB -8.48 dB 10:07 04-There Is More To This World
DR10 -4.14 dB -18.71 dB 0:54 05-Romancing The City
DR6 -1.00 dB -9.79 dB 5:49 06-The Melting Pot
DR6 -1.00 dB -8.72 dB 7:38 07-Silent Sorrow
DR6 -1.00 dB -9.02 dB 7:39 08-The Judas Kiss
DR10 -1.00 dB -13.95 dB 3:06 09-Retropolis By Night
DR6 -1.00 dB -9.11 dB 6:49 10-Flora Majora
DR6 -1.00 dB -10.09 dB 8:57 11-The Road Back Home

Number of tracks: 11
Official DR value: DR8

Samplerate: 44100 Hz
Channels: 2
Bits per sample: 16
Bitrate: 979 kbps
Codec: FLAC

[CUETools log; Date: 19.10.2015 14:02:49; Version: 2.1.4]
[CTDB TOCID: J_52HXdn8LtnJWQXYIPVn_w4A0Q-] found.
Track | CTDB Status
1 | ( 2/48) Accurately ripped
2 | ( 2/48) Accurately ripped
3 | ( 2/48) Accurately ripped
4 | ( 2/48) Accurately ripped
5 | ( 2/48) Accurately ripped
6 | ( 2/48) Accurately ripped
7 | ( 2/48) Accurately ripped
8 | ( 2/48) Accurately ripped
9 | ( 2/48) Accurately ripped
10 | ( 2/48) Accurately ripped
11 | ( 2/48) Accurately ripped
[AccurateRip ID: 001b254c-00edf15d-a810210b] found.
Track [ CRC | V2 ] Status
01 [3b9df053|64e46432] (000+000/133) No match
02 [ea0b99b9|42364a54] (000+000/130) No match
03 [0fe08938|a3a58019] (000+000/130) No match
04 457539d|76964b83 (000+000/131) No match
05 [6d0f5520|ac60606f] (000+000/132) No match
06 [64a4666f|dd95a54c] (000+000/131) No match
07 [f81f31be|293b71bd] (000+000/132) No match
08 [26584a08|b1515acd] (000+000/132) No match
09 [d6d234a1|afd3ebf5] (000+000/132) No match
10 [64271064|69b4666c] (000+000/132) No match
11 [11bf3898|7ac39183] (000+000/129) No match

Track Peak [ CRC32 ] [W/O NULL] [ LOG ]
-- 89,1 [960617EB] [16F4F90D] CRC32
01 66,9 [AFAD34A5] [42FA7E7E]
02 89,1 [FA640F0D] [94C4ADA1]
03 89,1 [CED54BF8] [972D3C01]
04 89,1 [360B8957] [AC3D57DE]
05 62,1 [81ACA2D5] [3EB9532A]
06 89,1 [EE3CC695] [0F517D5B]
07 89,1 [0CA532F6] [8B93C226]
08 89,1 [1C875385] [2ECA6458]
09 89,1 [2F057C52] [39392544]
10 89,1 [C27630BD] [77A65443]
11 89,1 [00FCF3A8] [DE1B1873]

* * * * *

The Flower Kings: 4CD (1995-1997) [2015, Belle Antique, Japan]

CD03-04: The Flower Kings - Stardust We Are (1997)
EAC | Flac(Image) + Cue + Log & MP3 CBR 320Kbps
2CD | Belle Antique 152366~7 | ~ 920 or 308 Mb | Scans(png) -> 492 Mb
Progressive Rock

"The Flower Kings' fast rise to the top of the progressive rock community was equal to their recording pace. The two hours of music on Stardust We Are completed a four-album run in a little less than four years. Roine Stolt's creativity seemed without limits, but listening to this two-CD set, one finds a little more filler than usual, mostly in the form of poppier tunes (like "Different People," "Kingdom of Lies," and "Compassion") and short instrumental pieces meant as bridges between more significant songs. Strangely, it didn't affect the album's cohesion or interest (it wouldn't be the case for Flower Power) and, although it could have been stripped down to an even stronger 75-minute CD, Stardust We Are made a strong impression and opened the U.S. doors for the Swedish band. The opener "In the Eyes of the World" has the strength and positive drive of the best Stolt songs and became an instant live classic, as did "Church of Your Heart," which also contained all The Flower Kings trademark ingredients: a memorable melody; intelligent shifts in time signature, speed, and key; lush arrangements; spirited musicianship; heartfelt vocals (alternating between Stolt and Hans Fröberg, depending on register and the emotional effect required); and a positive attitude toward life. "Circus Brimstone" is a strange and complex instrumental piece with backward voices inherited from Frank Zappa -- one of Roine Stolt's least-suspected influences. Disc two contains less strong moments: "The End of Innocence" is a good track, but afterwards it seems "Different People," "Kingdom of Lies," and "If 28" are just there to kill time before the epic "Stardust We Are," a 25-minute tour de force, full of well-developed music ideas seamlessly stitched together. More cohesive as a whole than the previous album Retropolis, Stardust We Are was on the other hand weaker musically speaking, but it remains one of the very good Flower Kings albums, if only for the opening and closing tracks.


by François Couture, AMG
"


Tracklist CD1:

1. In The Eyes Of The World (10:38)
2. A Room With A View (1:26)
3. Just This Once (7:53)
4. Church Of Your Heart (9:10)
5. Poor Mr. Rain's Ordinary Guitar (2:43)
6. The Man Who Walked With Kings (4:59)
7. Circus Brimstone (12:03)
8. Crying Clown (0:57)
9. Compassion (4:45)

Exact Audio Copy V1.0 beta 6 from 9. April 2015

EAC extraction logfile from 29. September 2015, 23:21

The Flower Kings / Stardust We Are CD1

Used drive : TSSTcorpCDDVDW SH-S223C Adapter: 1 ID: 0

Read mode : Secure
Utilize accurate stream : Yes
Defeat audio cache : Yes
Make use of C2 pointers : No

Read offset correction

: 697
Overread into Lead-In and Lead-Out : No
Fill up missing offset samples with silence : Yes
Delete leading and trailing silent blocks : No
Null samples used in CRC calculations : Yes
Used interface
: Native Win32 interface for Win NT & 2000

Used output format : User Defined Encoder
Selected bitrate : 128 kBit/s
Quality : High
Add ID3 tag : No
Command line compressor : C:\Program Files (x86)\Exact Audio Copy\wavpack\wavpack.exe
Additional command line options : -hm -w "Year=%year%" -w "Genre=%genre%" %source% %dest%

TOC of the extracted CD Track | Start | Length | Start sector | End sector
--1 | 0:00.00 | 10:39.58 | 0 | 47982 2 | 10:39.58 | 1:26.17 | 47983 | 54449 3 | 12:06.00 | 7:54.03 | 54450 | 90002 4 | 20:00.03 | 9:10.57 | 90003 | 131309 5 | 29:10.60 | 2:44.10 | 131310 | 143619 6 | 31:54.70 | 4:59.70 | 143620 | 166114 7 | 36:54.65 | 12:03.38 | 166115 | 220377 8 | 48:58.28 | 0:58.02 | 220378 | 224729 9 | 49:56.30 | 8:40.58 | 224730 | 263787

Range status and errors

Selected range Filename D:\_NL+_\_CD\The Flower Kings - Stardust We Are CD1.wav Peak level 89.1 %
Extraction speed 4.7 X
Range quality 100.0 %
Test CRC CDD25A57
Copy CRC CDD25A57
Copy OK

No errors occurred


AccurateRip summary

Track 1 accurately ripped (confidence 1) [A54BE45C] (AR v1)
Track 2 accurately ripped (confidence 1) [EAB2928A] (AR v1)
Track 3 accurately ripped (confidence 1) [353EA115] (AR v1)
Track 4 accurately ripped (confidence 1) [0F4A9287] (AR v1)
Track 5 accurately ripped (confidence 1) [EFCE18FD] (AR v1)
Track 6 accurately ripped (confidence 1) [91699C0C] (AR v1)
Track 7 accurately ripped (confidence 1) [F610E75A] (AR v1)
Track 8 accurately ripped (confidence 1) 33C4B64 (AR v1)
Track 9 accurately ripped (confidence 1) [586576E5] (AR v1)

All tracks accurately ripped

End of status report

- CUETools DB Plugin V2.1.6

[CTDB TOCID: fCYR52wuwBb45vLAG_D1KI2Djoo-] found
Submit result: fCYR52wuwBb45vLAG_D1KI2Djoo- has been confirmed
Track | CTDB Status
1 | (1/1) Accurately ripped
2 | (1/1) Accurately ripped
3 | (1/1) Accurately ripped
4 | (1/1) Accurately ripped
5 | (1/1) Accurately ripped
6 | (1/1) Accurately ripped
7 | (1/1) Accurately ripped
8 | (1/1) Accurately ripped
9 | (1/1) Accurately ripped

==== Log checksum CFBD434F3E1BBE32C8EBD8209238871B999BFEEE58CF4C396CF9D3E1863D9A0D ====

foobar2000 1.2.9 / Dynamic Range Meter 1.1.1
log date: 2015-10-19 14:03:06

Analyzed: The Flower Kings / Stardust We Are CD1

DR Peak RMS Duration Track

DR6 -1.00 dB -8.47 dB 10:40 01-In the Eyes of the World
DR11 -3.11 dB -17.58 dB 1:26 02-A Room With a View
DR7 -1.00 dB -9.89 dB 7:54 03-Just This Once
DR6 -1.00 dB -8.31 dB 9:11 04-Church of Your Heart
DR12 -1.33 dB -16.73 dB 2:44 05-Poor Mr. Rain's Ordinary Guitar
DR5 -1.00 dB -8.57 dB 5:00 06-The Man Who Walked With Kings
DR7 -1.00 dB -10.48 dB 12:04 07-Circus Brimstone
DR9 -4.13 dB -19.99 dB 0:58 08-Crying Clown
DR6 -1.00 dB -9.81 dB 8:41 09-Compassion

Number of tracks: 9
Official DR value: DR8

Samplerate: 44100 Hz
Channels: 2
Bits per sample: 16
Bitrate: 934 kbps
Codec: FLAC

[CUETools log; Date: 19.10.2015 14:03:10; Version: 2.1.4]
[CTDB TOCID: fCYR52wuwBb45vLAG_D1KI2Djoo-] found.
Track | CTDB Status
1 | (2/2) Accurately ripped
2 | (2/2) Accurately ripped
3 | (2/2) Accurately ripped
4 | (2/2) Accurately ripped
5 | (2/2) Accurately ripped
6 | (2/2) Accurately ripped
7 | (2/2) Accurately ripped
8 | (2/2) Accurately ripped
9 | (2/2) Accurately ripped
[AccurateRip ID: 00147ba9-00945fe6-790dbd09] found.
Track [ CRC | V2 ] Status
01 [a54be45c|fd06d6d7] (1+0/1) Accurately ripped
02 [eab2928a|96b0450a] (1+0/1) Accurately ripped
03 [353ea115|9868d597] (1+0/1) Accurately ripped
04 [0f4a9287|67cc63c5] (1+0/1) Accurately ripped
05 [efce18fd|6326ca38] (1+0/1) Accurately ripped
06 [91699c0c|e3facdd9] (1+0/1) Accurately ripped
07 [f610e75a|409ad10b] (1+0/1) Accurately ripped
08 33c4b64|f9cc0621 (1+0/1) Accurately ripped
09 [586576e5|3e4fb377] (1+0/1) Accurately ripped

Track Peak [ CRC32 ] [W/O NULL] [ LOG ]
-- 89,1 [CDD25A57] [A7F3922F] CRC32
01 89,1 [F6BCD7ED] [91BBBD47]
02 69,8 [EF575F3A] [7AF848E2]
03 89,1 [276096FA] [8696F8AA]
04 89,1 [8FB71A75] [3CC7FFEC]
05 85,7 [D4CF8411] [1A6F62F9]
06 89,1 [92BA60E2] [88263309]
07 89,1 [FEDC27DC] [2093360F]
08 62,1 [86341666] [438B5E37]
09 89,1 [273BB5F9] [46E4C61A]

Tracklist CD2:

1. Pipes Of Peace (1:19)
2. The End Of Innocence (8:28)
3. The Merrygoround (8:17)
4. Don Of The Universe (7:02)
5. A Day At The Mall (0:45)
6. Different People (6:19)
7. Kingdom Of Lies (5:48)
8. If 28 (2:15)
9. Ghost Of The Red Cloud (4:37)
10. Hotel Nirvana (1:49)
11. Stardust We Are (25:02)

Exact Audio Copy V1.0 beta 6 from 9. April 2015

EAC extraction logfile from 30. September 2015, 8:08

The Flower Kings / Stardust We Are CD2

Used drive : TSSTcorpCDDVDW SH-S223C Adapter: 1 ID: 0

Read mode : Secure
Utilize accurate stream : Yes
Defeat audio cache : Yes
Make use of C2 pointers : No

Read offset correction

: 697
Overread into Lead-In and Lead-Out : No
Fill up missing offset samples with silence : Yes
Delete leading and trailing silent blocks : No
Null samples used in CRC calculations : Yes
Used interface
: Native Win32 interface for Win NT & 2000

Used output format : User Defined Encoder
Selected bitrate : 128 kBit/s
Quality : High
Add ID3 tag : No
Command line compressor : C:\Program Files (x86)\Exact Audio Copy\wavpack\wavpack.exe
Additional command line options : -hm -w "Year=%year%" -w "Genre=%genre%" %source% %dest%

TOC of the extracted CD Track | Start | Length | Start sector | End sector
--1 | 0:00.00 | 1:19.58 | 0 | 5982 2 | 1:19.58 | 8:29.12 | 5983 | 44169 3 | 9:48.70 | 8:17.60 | 44170 | 81504 4 | 18:06.55 | 7:02.55 | 81505 | 113209 5 | 25:09.35 | 0:45.25 | 113210 | 116609 6 | 25:54.60 | 6:19.65 | 116610 | 145099 7 | 32:14.50 | 5:47.50 | 145100 | 171174 8 | 38:02.25 | 2:15.33 | 171175 | 181332 9 | 40:17.58 | 4:37.60 | 181333 | 202167
10 | 44:55.43 | 1:49.42 | 202168 | 210384
11 | 46:45.10 | 25:03.45 | 210385 | 323154

Range status and errors

Selected range Filename D:\_NL+_\_CD\The Flower Kings - Stardust We Are CD2.wav Peak level 89.1 %
Extraction speed 3.4 X
Range quality 99.9 %
Test CRC 2641D110
Copy CRC 2641D110
Copy OK

No errors occurred


AccurateRip summary

Track 1 cannot be verified as accurate (confidence 18) [8A9119ED], AccurateRip returned [8745EE4B] (AR v2)
Track 2 cannot be verified as accurate (confidence 18) [DD6A4F57], AccurateRip returned [D2EFD5A8] (AR v2)
Track 3 cannot be verified as accurate (confidence 18) [9DECE5DA], AccurateRip returned [005FC48D] (AR v2)
Track 4 cannot be verified as accurate (confidence 18) [FF50A066], AccurateRip returned [4A0E51D5] (AR v2)
Track 5 cannot be verified as accurate (confidence 18) [A8CFCAC2], AccurateRip returned [E89CD819] (AR v2)
Track 6 cannot be verified as accurate (confidence 18) [FDB0EC34], AccurateRip returned [9FFD6F8E] (AR v2)
Track 7 cannot be verified as accurate (confidence 18) [4F287A6B], AccurateRip returned [591F53AC] (AR v2)
Track 8 cannot be verified as accurate (confidence 18) [4929A21F], AccurateRip returned [89B01906] (AR v2)
Track 9 cannot be verified as accurate (confidence 18) [A76DA581], AccurateRip returned [77C3E9EC] (AR v2)
Track 10 cannot be verified as accurate (confidence 18) [212BA939], AccurateRip returned 36D0082 (AR v2)
Track 11 cannot be verified as accurate (confidence 18) [8A166BB3], AccurateRip returned [A3A56FF2] (AR v2)

No tracks could be verified as accurate
You may have a different pressing from the one(s) in the database

End of status report

- CUETools DB Plugin V2.1.6

[CTDB TOCID: JK5ShACk9vfK093IPwH9I0uisXY-] found
Submit result: JK5ShACk9vfK093IPwH9I0uisXY- has been confirmed
Track | CTDB Status
1 | ( 1/44) Accurately ripped
2 | ( 1/44) Accurately ripped
3 | ( 1/44) Accurately ripped
4 | ( 1/44) Accurately ripped
5 | ( 1/44) Accurately ripped
6 | ( 1/44) Accurately ripped
7 | ( 1/44) Accurately ripped
8 | ( 1/44) Accurately ripped
9 | ( 1/44) Accurately ripped
10 | ( 1/44) Accurately ripped
11 | ( 1/44) Accurately ripped

==== Log checksum 4064970FDD00A1845DD365B8B50F78042F4960F96379B4DFE7701CED8FB71087 ====

foobar2000 1.2.9 / Dynamic Range Meter 1.1.1
log date: 2015-10-19 14:03:28

Analyzed: The Flower Kings / Stardust We Are CD2

DR Peak RMS Duration Track

DR7 -1.00 dB -11.58 dB 1:20 01-Pipes of Peace
DR7 -1.00 dB -11.20 dB 8:29 02-The End of Innocence
DR6 -1.00 dB -9.05 dB 8:18 03-The Merrygoround
DR9 -1.00 dB -12.07 dB 7:03 04-Don of the Universe
DR11 -9.66 dB -23.87 dB 0:45 05-A Day at the Mall
DR6 -1.00 dB -9.38 dB 6:20 06-Different People
DR6 -1.00 dB -8.00 dB 5:48 07-Kingdom of Lies
DR12 -1.03 dB -16.59 dB 2:15 08-If 28
DR7 -1.00 dB -9.01 dB 4:38 09-Ghost of the Red Cloud
DR7 -3.12 dB -14.51 dB 1:50 10-Hotel Nirvana
DR6 -1.00 dB -8.72 dB 25:04 11-Stardust We Are

Number of tracks: 11
Official DR value: DR8

Samplerate: 44100 Hz
Channels: 2
Bits per sample: 16
Bitrate: 948 kbps
Codec: FLAC

[CUETools log; Date: 19.10.2015 14:03:30; Version: 2.1.4]
[CTDB TOCID: JK5ShACk9vfK093IPwH9I0uisXY-] found.
Track | CTDB Status
1 | ( 2/48) Accurately ripped
2 | ( 2/48) Accurately ripped
3 | ( 2/48) Accurately ripped
4 | ( 2/48) Accurately ripped
5 | ( 2/48) Accurately ripped
6 | ( 2/48) Accurately ripped
7 | ( 2/48) Accurately ripped
8 | ( 2/48) Accurately ripped
9 | ( 2/48) Accurately ripped
10 | ( 2/48) Accurately ripped
11 | ( 2/48) Accurately ripped
[AccurateRip ID: 001855aa-00d51ee7-9f10d40b] found.
Track [ CRC | V2 ] Status
01 [d12a0531|8a9119ed] (000+000/105) No match
02 [dea1f5bf|dd6a4f57] (000+000/105) No match
03 [3949578b|9dece5da] (000+000/105) No match
04 [c857cf17|ff50a066] (000+000/105) No match
05 [5a7935ed|a8cfcac2] (000+000/105) No match
06 [946f9e7c|fdb0ec34] (000+000/105) No match
07 [46f015ee|4f287a6b] (000+000/105) No match
08 [71b9dd22|4929a21f] (000+000/104) No match
09 [6553758e|a76da581] (000+000/104) No match
10 [32443ee4|212ba939] (000+000/104) No match
11 [f8ef832b|8a166bb3] (000+000/100) No match

Track Peak [ CRC32 ] [W/O NULL] [ LOG ]
-- 89,1 [2641D110] [EFF06ED6] CRC32
01 89,1 [06858087] [69C06133]
02 89,1 [2872AAB1] [19210AE4]
03 89,1 [0D438708] [74D2C24E]
04 89,1 [E613AA76] [E415FB70]
05 32,8 [DF802184] [2DE8641D]
06 89,1 [9C09C62C] [32A3D902]
07 89,1 [E2E6F99E] [978F4D96]
08 88,8 [52A0C309] [1F1A5F4F]
09 89,1 [977267EF] [DF688C5B]
10 69,8 [FE77B275] B9D3508
11 89,1 [F8AD29D6] [1EED05FD]

* * *

All thanks go to tatuk



Download The Flower Kings: 4CD (1995-1997):

Download Links:
(Premium Recommended)


All above links are interchangable. No password

Direct Download

Tags: Flower, Antique

The Flower Kings: 4CD (1995-1997) [2015, Belle Antique, Japan] Download via Hotfile Rapidshare Fileserve Megaupload & FileSonic, The Flower Kings: 4CD (1995-1997) [2015, Belle Antique, Japan] free torrent downloads included crack, serial, keygen.


Attention!Information

Members of Guest cannot leave comments.