VA: Gothic Spirits 1 - 6 (2005-2007) [12CD, ZYX Music]

Download Now

VA: Gothic Spirits 1 - 6 (2005-2007) [12CD, ZYX Music]

VA: Gothic Spirits 1 - 6 (2005-2007)
EAC | Flac(Image) + Cue + Log & MP3 CBR 320Kbps
12CD | ZYX Music | ~ 6863 or 2232 Mb | Scans Included
Gothic / Symphonic / Industrial

~ Nightwish; Therion; Black Sabbath; Epica; Xandria; Megaherz; Visions of Atlantis; Zeraphine; Lacuna Coil; Edenbridge and many more ~


VA: Gothic Spirits 1 - 6 (2005-2007):

VA: Gothic Spirits 1 - 6 (2005-2007) [12CD, ZYX Music]

VA: Gothic Spirits (2005)
EAC | Flac(Image) + Cue + Log & MP3 CBR 320Kbps
2CD | ZYX Music, ZYX 81694-2 | ~ 1111 or 374 Mb | Scans Included
Gothic / Symphonic / Industrial

Tracklist CD1:

01 - Nightwish - Nemo (4:27)
02 - Eisbrecher - Eisbrecher (4:05)
03 - Umbra et Imago - Lieber Gott (3:56)
04 - Crematory - Reign of Fear (4:36)
05 - Clan of Xymox - Back Door (4:52)
06 - Angelzoom - Turn the Sky (4:47)
07 - Haggard - Herr Mannelig (3:21)
08 - Rosenstolz - Nur einmal noch (3:20)
09 - To/Die/For - Silence Tells More (5:06)
10 - After Forever - Digital Deceit (5:32)
11 - Therion - Lemuria (4:17)
12 - The Cassandra Complex - Never (7:30)
13 - Asrai - Touch in the Dark (5:03)
14 - Arcane - Gloria (3:17)
15 - Runrig - Alba (3:56)
16 - Maxxess - Trance Lation (10:15)

Exact Audio Copy V1.0 beta 3 from 29. August 2011

EAC extraction logfile from 30. January 2013, 13:15

Various Artists / Gothic Spirits

Used drive : TSSTcorpCDDVDW SH-S202N Adapter: 1 ID: 0

Read mode : Secure
Utilize accurate stream : Yes
Defeat audio cache : Yes
Make use of C2 pointers : No

Read offset correction

: 6
Overread into Lead-In and Lead-Out : No
Fill up missing offset samples with silence : Yes
Delete leading and trailing silent blocks : No
Null samples used in CRC calculations : Yes
Used interface
: Native Win32 interface for Win NT & 2000

Used output format : User Defined Encoder
Selected bitrate : 896 kBit/s
Quality : High
Add ID3 tag : No
Command line compressor : C:\Program Files (x86)\Exact Audio Copy\FLACCL\CUETools.FLACCL.cmd.exe
Additional command line options : -7 --verify %source% -o %dest%

TOC of the extracted CD Track | Start | Length | Start sector | End sector
--1 | 0:00.00 | 4:26.73 | 0 | 20022 2 | 4:26.73 | 4:05.34 | 20023 | 38431 3 | 8:32.32 | 3:56.29 | 38432 | 56160 4 | 12:28.61 | 4:35.55 | 56161 | 76840 5 | 17:04.41 | 4:51.70 | 76841 | 98735 6 | 21:56.36 | 4:47.33 | 98736 | 120293 7 | 26:43.69 | 3:20.72 | 120294 | 135365 8 | 30:04.66 | 3:20.34 | 135366 | 150399 9 | 33:25.25 | 5:06.32 | 150400 | 173381
10 | 38:31.57 | 5:32.29 | 173382 | 198310
11 | 44:04.11 | 4:16.40 | 198311 | 217550
12 | 48:20.51 | 7:29.57 | 217551 | 251282
13 | 55:50.33 | 5:03.33 | 251283 | 274040
14 | 60:53.66 | 3:16.65 | 274041 | 288805
15 | 64:10.56 | 3:55.45 | 288806 | 306475
16 | 68:06.26 | 10:14.41 | 306476 | 352566

Range status and errors

Selected range Filename C:\EAC\Gothic Spirits\Gothic Spirits\Gothic Spirits CD1.wav Peak level 99.8 %
Extraction speed 8.4 X
Range quality 100.0 %
Copy CRC 04E31893
Copy OK

No errors occurred


AccurateRip summary

Track 1 accurately ripped (confidence 2) [4E73339C] (AR v1)
Track 2 accurately ripped (confidence 2) [88358070] (AR v1)
Track 3 accurately ripped (confidence 2) [2A165347] (AR v1)
Track 4 accurately ripped (confidence 2) [F7B2151F] (AR v1)
Track 5 accurately ripped (confidence 2) [AD5C6F56] (AR v1)
Track 6 accurately ripped (confidence 2) [CB6EB495] (AR v1)
Track 7 accurately ripped (confidence 2) [6CA8AACB] (AR v1)
Track 8 accurately ripped (confidence 2) [A3970B68] (AR v1)
Track 9 accurately ripped (confidence 2) [C7E2E2B7] (AR v1)
Track 10 accurately ripped (confidence 2) [4ACD8345] (AR v1)
Track 11 accurately ripped (confidence 2) [128D2512] (AR v1)
Track 12 accurately ripped (confidence 2) [34AACB81] (AR v1)
Track 13 accurately ripped (confidence 2) [55FE1EC5] (AR v1)
Track 14 accurately ripped (confidence 2) [5F4BC8C1] (AR v1)
Track 15 accurately ripped (confidence 2) [8C7BBA08] (AR v1)
Track 16 accurately ripped (confidence 2) [D64194DC] (AR v1)

All tracks accurately ripped

End of status report

- CUETools DB Plugin V2.1.3

[CTDB TOCID: lXkrzETXYQ5qFBfLGduoRkUQhMQ-] found, Submit result: already submitted
[53e5185d] (1/1) Accurately ripped

==== Log checksum 51A1F07D0DADF58A5C7B962EBD69C05E0EF6E1D4C781D6CFC24DD87CB069F597 ====

foobar2000 1.2.9 / Dynamic Range Meter 1.1.1
log date: 2015-10-18 19:33:01

Analyzed: Angelzoom / Gothic Spirits CD1 (1) Arcane / Gothic Spirits CD1 (2)

DR Peak RMS Duration Track

DR5 -0.30 dB -8.50 dB 4:47 06-Turn the Sky
DR6 -0.92 dB -9.20 dB 3:17 14-Gloria

Number of tracks: 2
Official DR value: DR5

Samplerate: 44100 Hz
Channels: 2
Bits per sample: 16
Bitrate: 964 kbps
Codec: FLAC

Statistics for: 13-Touch in the Dark
Number of samples: 13381704
Duration: 5:03
Left Right

Peak Value: -0.10 dB -0.10 dB
Avg RMS: -9.52 dB -9.40 dB
DR channel: 7.40 dB 7.00 dB

Official DR Value: DR7

Samplerate: 44100 Hz
Channels: 2
Bits per sample: 16
Bitrate: 964 kbps
Codec: FLAC

Statistics for: 05-Back Door
Number of samples: 12874260
Duration: 4:52
Left Right

Peak Value: -0.10 dB -0.10 dB
Avg RMS: -11.27 dB -11.19 dB
DR channel: 9.85 dB 9.55 dB

Official DR Value: DR10

Samplerate: 44100 Hz
Channels: 2
Bits per sample: 16
Bitrate: 964 kbps
Codec: FLAC

Statistics for: 04-Reign of Fear
Number of samples: 12159840
Duration: 4:36
Left Right

Peak Value: -0.16 dB -0.16 dB
Avg RMS: -7.92 dB -7.89 dB
DR channel: 5.49 dB 5.67 dB

Official DR Value: DR6

Samplerate: 44100 Hz
Channels: 2
Bits per sample: 16
Bitrate: 964 kbps
Codec: FLAC

Analyzed: Eisbrecher / Gothic Spirits CD1 (1) Haggard / Gothic Spirits CD1 (2) Maxxess / Gothic Spirits CD1 (3)

DR Peak RMS Duration Track

DR5 -0.09 dB -7.40 dB 4:05 02-Eisbrecher
DR5 -0.45 dB -6.94 dB 3:21 07-Herr Mannelig
DR7 -1.00 dB -10.30 dB 10:15 16-Trance Lation

Number of tracks: 3
Official DR value: DR6

Samplerate: 44100 Hz
Channels: 2
Bits per sample: 16
Bitrate: 964 kbps
Codec: FLAC

Analyzed: Nightwish / Gothic Spirits CD1 (1) Rosenstolz / Gothic Spirits CD1 (2) Runrig / Gothic Spirits CD1 (3)

DR Peak RMS Duration Track

DR5 -0.08 dB -7.50 dB 4:27 01-Nemo
DR7 -0.01 dB -8.71 dB 3:20 08-Nur einmal noch
DR8 -0.10 dB -9.33 dB 3:56 15-Alba

Number of tracks: 3
Official DR value: DR7

Samplerate: 44100 Hz
Channels: 2
Bits per sample: 16
Bitrate: 964 kbps
Codec: FLAC

Statistics for: 12-Never
Number of samples: 19834416
Duration: 7:30
Left Right

Peak Value: -0.42 dB -0.42 dB
Avg RMS: -9.05 dB -9.38 dB
DR channel: 6.46 dB 6.78 dB

Official DR Value: DR7

Samplerate: 44100 Hz
Channels: 2
Bits per sample: 16
Bitrate: 964 kbps
Codec: FLAC

Statistics for: 11-Lemuria
Number of samples: 11313120
Duration: 4:17
Left Right

Peak Value: -0.10 dB -0.10 dB
Avg RMS: -9.71 dB -9.42 dB
DR channel: 7.46 dB 7.04 dB

Official DR Value: DR7

Samplerate: 44100 Hz
Channels: 2
Bits per sample: 16
Bitrate: 964 kbps
Codec: FLAC

Statistics for: 09-Silence Tells More
Number of samples: 13513416
Duration: 5:06
Left Right

Peak Value: -0.20 dB -0.20 dB
Avg RMS: -8.36 dB -8.48 dB
DR channel: 6.50 dB 6.59 dB

Official DR Value: DR7

Samplerate: 44100 Hz
Channels: 2
Bits per sample: 16
Bitrate: 964 kbps
Codec: FLAC

Statistics for: 03-Lieber Gott
Number of samples: 10424652
Duration: 3:56
Left Right

Peak Value: -0.10 dB -0.10 dB
Avg RMS: -7.53 dB -7.66 dB
DR channel: 6.37 dB 6.48 dB

Official DR Value: DR6

Samplerate: 44100 Hz
Channels: 2
Bits per sample: 16
Bitrate: 964 kbps
Codec: FLAC

[CUETools log; Date: 14.10.2015 17:26:57; Version: 2.1.4]
[CTDB TOCID: lXkrzETXYQ5qFBfLGduoRkUQhMQ-] found.
Track | CTDB Status
1 | (2/2) Accurately ripped
2 | (2/2) Accurately ripped
3 | (2/2) Accurately ripped
4 | (2/2) Accurately ripped
5 | (2/2) Accurately ripped
6 | (2/2) Accurately ripped
7 | (2/2) Accurately ripped
8 | (2/2) Accurately ripped
9 | (2/2) Accurately ripped
10 | (2/2) Accurately ripped
11 | (2/2) Accurately ripped
12 | (2/2) Accurately ripped
13 | (2/2) Accurately ripped
14 | (2/2) Accurately ripped
15 | (2/2) Accurately ripped
16 | (2/2) Accurately ripped
[AccurateRip ID: 002a180e-01ff128d-d0125c10] found.
Track [ CRC | V2 ] Status
01 [4e73339c|d8d7e6a1] (3+2/5) Accurately ripped
02 [88358070|9729cbac] (3+2/5) Accurately ripped
03 [2a165347|820168a1] (3+2/5) Accurately ripped
04 [f7b2151f|afa8e0d4] (3+2/5) Accurately ripped
05 [ad5c6f56|3205d5b0] (3+2/5) Accurately ripped
06 [cb6eb495|302c6e91] (3+2/5) Accurately ripped
07 [6ca8aacb|ccd9e1da] (3+2/5) Accurately ripped
08 [a3970b68|b15798d5] (3+2/5) Accurately ripped
09 [c7e2e2b7|6c6f5edb] (3+2/5) Accurately ripped
10 [4acd8345|9a24b1b1] (3+2/5) Accurately ripped
11 [128d2512|8b6e2254] (3+2/5) Accurately ripped
12 [34aacb81|c672d926] (3+2/5) Accurately ripped
13 [55fe1ec5|fa7b33e9] (3+2/5) Accurately ripped
14 [5f4bc8c1|063a91e4] (3+2/5) Accurately ripped
15 [8c7bba08|ba2cc252] (3+2/5) Accurately ripped
16 [d64194dc|a8afd12c] (3+2/5) Accurately ripped

Track Peak [ CRC32 ] [W/O NULL] [ LOG ]
-- 99,8 [04E31893] 70B88C4 CRC32
01 99,0 [AB550652] [A6C8D355]
02 98,9 [50185CF9] [EBB10E25]
03 98,8 [E20B6177] [8F629420]
04 98,1 [883082DE] [01729561]
05 98,8 [D7465998] [88E4D204]
06 96,6 [8E8C27AE] [F51B602D]
07 94,9 3584F3F [A8828B7E]
08 99,8 [95759ADF] [DE8B9085]
09 97,7 [07D7AD42] [D7436357]
10 98,8 [24995676] [90C91472]
11 98,9 [68E2D013] [D1513F67]
12 95,3 [90EF6476] [757BB632]
13 98,8 [56D534DE] [5B47FF41]
14 89,9 [8B6306BF] [79F9FEC2]
15 98,8 CB5816F 014E6BF
16 89,1 [4BEE706B] [FDD6DBAA]

Tracklist CD2:

01 - Angelzoom - Fairyland (3:31)
02 - Wolfsheim - Blind (radio version) (4:00)
03 - Black Sabbath - Headless Cross (6:30)
04 - Nightwish - Bless the Child (6:13)
05 - Crematory - Revolution (3:27)
06 - Epica - Feint (4:19)
07 - Umbra et Imago - Mea Culpa (4:47)
08 - Eisbrecher - Herz steht still (3:56)
09 - Xandria - Ravenheart (3:45)
10 - Therion - Call of Dagon (4:14)
11 - Stalingrad - Der letzte Flug (4:06)
12 - Frank Zander - Es fährt ein Zug nach Nirgendwo (3:21)
13 - Deathstars - Syndrome (3:11)
14 - Acapulco Gold - Sodom und Gomorrha (5:31)
15 - Alquimia - Floralia (6:38)
16 - Megaherz - Freiflug (3:48)
17 - Artus - Come Along (3:36)
18 - In the Nursery - Sœurette (3:29)

Exact Audio Copy V1.0 beta 3 from 29. August 2011

EAC extraction logfile from 30. January 2013, 13:48

Various Artists / Gothic Spirits

Used drive : TSSTcorpCDDVDW SH-S202N Adapter: 1 ID: 0

Read mode : Secure
Utilize accurate stream : Yes
Defeat audio cache : Yes
Make use of C2 pointers : No

Read offset correction

: 6
Overread into Lead-In and Lead-Out : No
Fill up missing offset samples with silence : Yes
Delete leading and trailing silent blocks : No
Null samples used in CRC calculations : Yes
Used interface
: Native Win32 interface for Win NT & 2000

Used output format : User Defined Encoder
Selected bitrate : 896 kBit/s
Quality : High
Add ID3 tag : No
Command line compressor : C:\Program Files (x86)\Exact Audio Copy\FLACCL\CUETools.FLACCL.cmd.exe
Additional command line options : -7 --verify %source% -o %dest%

TOC of the extracted CD Track | Start | Length | Start sector | End sector
--1 | 0:00.00 | 3:30.60 | 0 | 15809 2 | 3:30.60 | 3:59.62 | 15810 | 33796 3 | 7:30.47 | 6:30.34 | 33797 | 63080 4 | 14:01.06 | 6:12.71 | 63081 | 91051 5 | 20:14.02 | 3:27.27 | 91052 | 106603 6 | 23:41.29 | 4:18.67 | 106604 | 126020 7 | 28:00.21 | 4:46.51 | 126021 | 147521 8 | 32:46.72 | 3:56.24 | 147522 | 165245 9 | 36:43.21 | 3:45.26 | 165246 | 182146
10 | 40:28.47 | 4:13.52 | 182147 | 201173
11 | 44:42.24 | 4:06.22 | 201174 | 219645
12 | 48:48.46 | 3:20.50 | 219646 | 234695
13 | 52:09.21 | 3:10.64 | 234696 | 249009
14 | 55:20.10 | 5:30.51 | 249010 | 273810
15 | 60:50.61 | 6:37.70 | 273811 | 303655
16 | 67:28.56 | 3:48.31 | 303656 | 320786
17 | 71:17.12 | 3:35.47 | 320787 | 336958
18 | 74:52.59 | 3:28.44 | 336959 | 352602

Range status and errors

Selected range Filename C:\EAC\Gothic Spirits\Gothic Spirits\Gothic Spirits CD2.wav Peak level 98.9 %
Extraction speed 8.4 X
Range quality 100.0 %
Copy CRC 545B9138
Copy OK

No errors occurred


AccurateRip summary

Track 1 accurately ripped (confidence 2) [E5F95FF7] (AR v1)
Track 2 accurately ripped (confidence 2) [9FCF9C01] (AR v1)
Track 3 accurately ripped (confidence 2) [DBEAC790] (AR v1)
Track 4 accurately ripped (confidence 2) [889D270B] (AR v1)
Track 5 accurately ripped (confidence 2) [99B695BA] (AR v1)
Track 6 accurately ripped (confidence 2) [5C219DA4] (AR v1)
Track 7 accurately ripped (confidence 2) [34DF9E4F] (AR v1)
Track 8 accurately ripped (confidence 2) [986CB74B] (AR v1)
Track 9 accurately ripped (confidence 2) [A3AD3CBA] (AR v1)
Track 10 accurately ripped (confidence 2) [2DAFA632] (AR v1)
Track 11 accurately ripped (confidence 2) [7DD95DA3] (AR v1)
Track 12 accurately ripped (confidence 2) [72A8D8CF] (AR v1)
Track 13 accurately ripped (confidence 2) [1B4A466E] (AR v1)
Track 14 accurately ripped (confidence 2) [90B5F9CD] (AR v1)
Track 15 accurately ripped (confidence 2) [C7B2C86D] (AR v1)
Track 16 accurately ripped (confidence 2) [EB6A1819] (AR v1)
Track 17 accurately ripped (confidence 2) [D4FD248C] (AR v1)
Track 18 accurately ripped (confidence 2) [C34FE52C] (AR v1)

All tracks accurately ripped

End of status report

- CUETools DB Plugin V2.1.3

[CTDB TOCID: 1U.Tw3mb8jbQXOSksBcMdDQH.mM-] disk not present in database, Submit result: 1U.Tw3mb8jbQXOSksBcMdDQH.mM- has been uploaded

==== Log checksum 85D536668A423B991A8D234D54B690637E38E2E6FC30CDDB54FC6A57393E6F02 ====

foobar2000 1.2.9 / Dynamic Range Meter 1.1.1
log date: 2015-10-18 19:33:21

Analyzed: Acapulco Gold / Gothic Spirits CD2 (1) Alquimia / Gothic Spirits CD2 (2)

DR Peak RMS Duration Track

DR8 -0.10 dB -9.05 dB 5:31 14-Sodom und Gomorrha
DR8 -0.30 dB -10.42 dB 6:38 15-Floralia

Number of tracks: 2
Official DR value: DR8

Samplerate: 44100 Hz
Channels: 2
Bits per sample: 16
Bitrate: 955 kbps
Codec: FLAC

Analyzed: Angelzoom / Gothic Spirits CD2 (1) Artus / Gothic Spirits CD2 (2)

DR Peak RMS Duration Track

DR6 -0.20 dB -8.76 dB 3:31 01-Fairyland
DR5 -1.94 dB -8.35 dB 3:36 17-Come Along

Number of tracks: 2
Official DR value: DR6

Samplerate: 44100 Hz
Channels: 2
Bits per sample: 16
Bitrate: 955 kbps
Codec: FLAC

Analyzed: Black Sabbath / Gothic Spirits CD2 (1) Crematory / Gothic Spirits CD2 (2) Deathstars / Gothic Spirits CD2 (3)

DR Peak RMS Duration Track

DR8 -0.20 dB -9.41 dB 6:30 03-Headless Cross
DR5 -1.41 dB -8.31 dB 3:27 05-Revolution
DR7 -0.12 dB -9.36 dB 3:11 13-Syndrome

Number of tracks: 3
Official DR value: DR7

Samplerate: 44100 Hz
Channels: 2
Bits per sample: 16
Bitrate: 955 kbps
Codec: FLAC

Statistics for: 08-Herz steht still
Number of samples: 10421712
Duration: 3:56
Left Right

Peak Value: -0.09 dB -0.09 dB
Avg RMS: -8.70 dB -9.13 dB
DR channel: 5.52 dB 6.05 dB

Official DR Value: DR6

Samplerate: 44100 Hz
Channels: 2
Bits per sample: 16
Bitrate: 955 kbps
Codec: FLAC

Analyzed: Epica / Gothic Spirits CD2 (1) Frank Zander / Gothic Spirits CD2 (2) In the Nursery / Gothic Spirits CD2 (3)

DR Peak RMS Duration Track

DR6 -0.50 dB -8.97 dB 4:19 06-Feint
DR4 -1.94 dB -7.71 dB 3:21 12-Es fahrt ein Zug nach Nirgendwo
DR9 -0.10 dB -12.75 dB 3:29 18-Soeurette

Number of tracks: 3
Official DR value: DR6

Samplerate: 44100 Hz
Channels: 2
Bits per sample: 16
Bitrate: 955 kbps
Codec: FLAC

Statistics for: 16-Freiflug
Number of samples: 10073028
Duration: 3:48
Left Right

Peak Value: -0.23 dB -0.18 dB
Avg RMS: -9.66 dB -9.81 dB
DR channel: 6.82 dB 6.80 dB

Official DR Value: DR7

Samplerate: 44100 Hz
Channels: 2
Bits per sample: 16
Bitrate: 955 kbps
Codec: FLAC

Analyzed: Nightwish / Gothic Spirits CD2 (1) Stalingrad / Gothic Spirits CD2 (2)

DR Peak RMS Duration Track

DR6 -0.09 dB -7.66 dB 6:13 04-Bless the Child
DR5 -0.40 dB -8.37 dB 4:06 11-Der letzte Flug

Number of tracks: 2
Official DR value: DR5

Samplerate: 44100 Hz
Channels: 2
Bits per sample: 16
Bitrate: 955 kbps
Codec: FLAC

Statistics for: 10-Call of Dagon
Number of samples: 11187876
Duration: 4:14
Left Right

Peak Value: -0.40 dB -0.40 dB
Avg RMS: -7.33 dB -7.23 dB
DR channel: 5.80 dB 6.04 dB

Official DR Value: DR6

Samplerate: 44100 Hz
Channels: 2
Bits per sample: 16
Bitrate: 955 kbps
Codec: FLAC

Statistics for: 07-Mea Culpa
Number of samples: 12642588
Duration: 4:47
Left Right

Peak Value: -0.20 dB -0.20 dB
Avg RMS: -8.64 dB -8.70 dB
DR channel: 6.91 dB 7.02 dB

Official DR Value: DR7

Samplerate: 44100 Hz
Channels: 2
Bits per sample: 16
Bitrate: 955 kbps
Codec: FLAC

Analyzed: Wolfsheim / Gothic Spirits CD2 (1) Xandria / Gothic Spirits CD2 (2)

DR Peak RMS Duration Track

DR5 -0.20 dB -7.41 dB 4:00 02-Blind (radio version)
DR5 -0.63 dB -8.09 dB 3:45 09-Ravenheart

Number of tracks: 2
Official DR value: DR5

Samplerate: 44100 Hz
Channels: 2
Bits per sample: 16
Bitrate: 955 kbps
Codec: FLAC

[CUETools log; Date: 14.10.2015 17:30:34; Version: 2.1.4]
[CTDB TOCID: 1U.Tw3mb8jbQXOSksBcMdDQH.mM-] found.
Track | CTDB Status
1 | (1/1) Accurately ripped
2 | (1/1) Accurately ripped
3 | (1/1) Accurately ripped
4 | (1/1) Accurately ripped
5 | (1/1) Accurately ripped
6 | (1/1) Accurately ripped
7 | (1/1) Accurately ripped
8 | (1/1) Accurately ripped
9 | (1/1) Accurately ripped
10 | (1/1) Accurately ripped
11 | (1/1) Accurately ripped
12 | (1/1) Accurately ripped
13 | (1/1) Accurately ripped
14 | (1/1) Accurately ripped
15 | (1/1) Accurately ripped
16 | (1/1) Accurately ripped
17 | (1/1) Accurately ripped
18 | (1/1) Accurately ripped
[AccurateRip ID: 00343d86-02b51128-e8125d12] found.
Track [ CRC | V2 ] Status
01 [e5f95ff7|0845f350] (3+2/5) Accurately ripped
02 [9fcf9c01|a19b5ee9] (3+2/5) Accurately ripped
03 [dbeac790|5b2b2d03] (3+2/5) Accurately ripped
04 [889d270b|45886545] (3+2/5) Accurately ripped
05 [99b695ba|8af6123e] (3+2/5) Accurately ripped
06 [5c219da4|d0eae449] (3+2/5) Accurately ripped
07 [34df9e4f|e9519a87] (3+2/5) Accurately ripped
08 [986cb74b|f6006f83] (3+2/5) Accurately ripped
09 [a3ad3cba|e74e5981] (3+2/5) Accurately ripped
10 [2dafa632|4576e510] (3+2/5) Accurately ripped
11 [7dd95da3|31fd77ce] (3+2/5) Accurately ripped
12 [72a8d8cf|ebb3f65b] (3+2/5) Accurately ripped
13 [1b4a466e|d8777e3e] (3+2/5) Accurately ripped
14 [90b5f9cd|4ae3ee1c] (3+2/5) Accurately ripped
15 [c7b2c86d|7ddd2801] (3+2/5) Accurately ripped
16 [eb6a1819|38771c69] (3+2/5) Accurately ripped
17 [d4fd248c|c1485b02] (3+2/5) Accurately ripped
18 [c34fe52c|bdd15301] (3+2/5) Accurately ripped

Track Peak [ CRC32 ] [W/O NULL] [ LOG ]
-- 98,9 [545B9138] [026E7A50] CRC32
01 97,7 [904D5263] [ED542D64]
02 97,7 [F74D3CE3] [09569B4D]
03 97,7 [7751BABE] C9857D1
04 98,9 [15177A0C] [79D77CAA]
05 84,9 [83031517] [1F5C9296]
06 94,4 [F4D317CD] [76C82DA3]
07 97,7 [AB32C71B] [A15E1897]
08 98,9 [0E6DC70A] [6DC55817]
09 92,9 [E72840F3] [1479AE2B]
10 95,4 [0E7AF917] [F0724A1E]
11 95,4 [2C877C02] [DEDAA966]
12 79,9 [C1401FD7] 7508EE8
13 98,6 [D9BA04CD] [DF8B9996]
14 98,8 11029B0 [21172EA5]
15 96,6 [A44D33AF] [D1B4FA55]
16 97,9 [EC17C73D] [75FF2160]
17 79,9 [7883B853] [4CF5D19B]
18 98,8 [C4DF7E69] [E4C39ED3]

* * * * *

VA: Gothic Spirits 1 - 6 (2005-2007) [12CD, ZYX Music]

VA: Gothic Spirits 2 (2005)
EAC | Flac(Image) + Cue + Log & MP3 CBR 320Kbps
2CD | ZYX Music, ZYX 81770-2 | ~ 1099 or 367 Mb | Scans Included
Gothic / Symphonic / Industrial

Tracklist CD1:

01 - Leaves' Eyes - Elegy (5:08)
02 - Subway to Sally - Sieben (3:23)
03 - Nightwish - Walking in the Air (5:30)
04 - Therion - The Klysti Evangelist (5:39)
05 - Atrocity - Cold Black Days (3:53)
06 - Kirlian Camera - Blue Room (5:50)
07 - Midnattsol - Unpayable Silence (5:04)
08 - Deathstars - Synthetic Generation (3:30)
09 - Xandria - In Love With the Darkness (3:50)
10 - Battlelore - Elves of Lúva (4:42)
11 - Graveworm - (N)utopia (4:13)
12 - Megaherz - Hurra - Wir leben noch (4:46)
13 - Darkwell - Metatron (4:41)
14 - Frank Zander - Nachbar (3:51)
15 - sToa - In Memoriam (5:04)
16 - miLù, Kim Sanders & Peter Heppner - Aus Gold (3:47)
17 - 3-11 Porter - Surround Me With Your Love (3:24)

Exact Audio Copy V1.0 beta 3 from 29. August 2011

EAC extraction logfile from 30. January 2013, 14:24

Various Artists / Gothic Spirits 2

Used drive : TSSTcorpCDDVDW SH-S202N Adapter: 1 ID: 0

Read mode : Secure
Utilize accurate stream : Yes
Defeat audio cache : Yes
Make use of C2 pointers : No

Read offset correction

: 6
Overread into Lead-In and Lead-Out : No
Fill up missing offset samples with silence : Yes
Delete leading and trailing silent blocks : No
Null samples used in CRC calculations : Yes
Used interface
: Native Win32 interface for Win NT & 2000

Used output format : User Defined Encoder
Selected bitrate : 896 kBit/s
Quality : High
Add ID3 tag : No
Command line compressor : C:\Program Files (x86)\Exact Audio Copy\FLACCL\CUETools.FLACCL.cmd.exe
Additional command line options : -7 --verify %source% -o %dest%

TOC of the extracted CD Track | Start | Length | Start sector | End sector
--1 | 0:00.00 | 5:07.65 | 0 | 23089 2 | 5:07.65 | 3:23.34 | 23090 | 38348 3 | 8:31.24 | 5:29.65 | 38349 | 63088 4 | 14:01.14 | 5:38.39 | 63089 | 88477 5 | 19:39.53 | 3:52.68 | 88478 | 105945 6 | 23:32.46 | 5:49.68 | 105946 | 132188 7 | 29:22.39 | 5:03.53 | 132189 | 154966 8 | 34:26.17 | 3:29.47 | 154967 | 170688 9 | 37:55.64 | 3:49.72 | 170689 | 187935
10 | 41:45.61 | 4:41.57 | 187936 | 209067
11 | 46:27.43 | 4:12.68 | 209068 | 228035
12 | 50:40.36 | 4:45.65 | 228036 | 249475
13 | 55:26.26 | 4:40.71 | 249476 | 270546
14 | 60:07.22 | 3:50.39 | 270547 | 287835
15 | 63:57.61 | 5:04.32 | 287836 | 310667
16 | 69:02.18 | 3:46.57 | 310668 | 327674
17 | 72:49.00 | 3:24.34 | 327675 | 343008

Range status and errors

Selected range Filename C:\EAC\Gothic Spirits\Gothic Spirits 2\Gothic Spirits 2 CD1.wav Peak level 98.9 %
Extraction speed 8.2 X
Range quality 100.0 %
Copy CRC 84BB72E3
Copy OK

No errors occurred


AccurateRip summary

Track 1 accurately ripped (confidence 2) [D320BB95] (AR v1)
Track 2 accurately ripped (confidence 2) [E7BFAEBB] (AR v1)
Track 3 accurately ripped (confidence 2) [11F6AFD2] (AR v1)
Track 4 accurately ripped (confidence 2) [D69832A5] (AR v1)
Track 5 accurately ripped (confidence 2) [F8B3E681] (AR v1)
Track 6 accurately ripped (confidence 2) [DA2803FD] (AR v1)
Track 7 accurately ripped (confidence 2) [4EBE0F93] (AR v1)
Track 8 accurately ripped (confidence 2) [9F962EA3] (AR v1)
Track 9 accurately ripped (confidence 2) [6CE5E8BB] (AR v1)
Track 10 accurately ripped (confidence 2) [AFBB4B46] (AR v1)
Track 11 accurately ripped (confidence 2) B38333F (AR v1)
Track 12 accurately ripped (confidence 2) [F8AC8BD7] (AR v1)
Track 13 accurately ripped (confidence 2) [2A7C6B6C] (AR v1)
Track 14 accurately ripped (confidence 2) [E006DF04] (AR v1)
Track 15 accurately ripped (confidence 2) [E178BC25] (AR v1)
Track 16 accurately ripped (confidence 2) [0C82CAAF] (AR v1)
Track 17 accurately ripped (confidence 2) [A06AF654] (AR v1)

All tracks accurately ripped

End of status report

- CUETools DB Plugin V2.1.3

[CTDB TOCID: ssGFNR1kgB4lVcSWYy7X53PXfak-] disk not present in database, Submit result: ssGFNR1kgB4lVcSWYy7X53PXfak- has been uploaded

==== Log checksum 9E3BE1CC5C08DD21B2016859DB3F1FD35030A752C4F95ED52F3CA8F06EB01515 ====

foobar2000 1.2.9 / Dynamic Range Meter 1.1.1
log date: 2015-10-18 19:32:23

Analyzed: Atrocity / Gothic Spirits 2 CD1 (1) Battlelore / Gothic Spirits 2 CD1 (2) Darkwell / Gothic Spirits 2 CD1 (3)

DR Peak RMS Duration Track

DR4 -1.21 dB -6.79 dB 3:53 05-Cold Black Days
DR8 -0.09 dB -10.78 dB 4:42 10-Elves of Luva
DR4 -1.41 dB -6.50 dB 4:41 13-Metatron

Number of tracks: 3
Official DR value: DR5

Samplerate: 44100 Hz
Channels: 2
Bits per sample: 16
Bitrate: 973 kbps
Codec: FLAC

Analyzed: Deathstars / Gothic Spirits 2 CD1 (1) Frank Zander / Gothic Spirits 2 CD1 (2)

DR Peak RMS Duration Track

DR7 -0.13 dB -8.20 dB 3:30 08-Synthetic Generation
DR6 -0.54 dB -9.38 dB 3:51 14-Nachbar

Number of tracks: 2
Official DR value: DR6

Samplerate: 44100 Hz
Channels: 2
Bits per sample: 16
Bitrate: 973 kbps
Codec: FLAC

Statistics for: 11-(N)utopia
Number of samples: 11153184
Duration: 4:13
Left Right

Peak Value: -3.10 dB -3.10 dB
Avg RMS: -7.58 dB -7.45 dB
DR channel: 3.84 dB 3.82 dB

Official DR Value: DR4

Samplerate: 44100 Hz
Channels: 2
Bits per sample: 16
Bitrate: 973 kbps
Codec: FLAC

Statistics for: 06-Blue Room
Number of samples: 15430884
Duration: 5:50
Left Right

Peak Value: -0.09 dB -0.09 dB
Avg RMS: -7.36 dB -6.99 dB
DR channel: 6.10 dB 5.80 dB

Official DR Value: DR6

Samplerate: 44100 Hz
Channels: 2
Bits per sample: 16
Bitrate: 973 kbps
Codec: FLAC

Analyzed: Leaves’ Eyes / Gothic Spirits 2 CD1 (1) Megaherz / Gothic Spirits 2 CD1 (2)

DR Peak RMS Duration Track

DR4 -0.72 dB -5.71 dB 5:08 01-Elegy
DR8 -0.10 dB -9.55 dB 4:46 12-Hurra - Wir leben noch

Number of tracks: 2
Official DR value: DR6

Samplerate: 44100 Hz
Channels: 2
Bits per sample: 16
Bitrate: 973 kbps
Codec: FLAC

Analyzed: Midnattsol / Gothic Spirits 2 CD1 (1) miLu, Kim Sanders & Peter Heppner / Gothic Spirits 2 CD1 (2)

DR Peak RMS Duration Track

DR5 -0.92 dB -7.87 dB 5:04 07-Unpayable Silence
DR6 -1.94 dB -10.71 dB 3:47 16-Aus Gold

Number of tracks: 2
Official DR value: DR5

Samplerate: 44100 Hz
Channels: 2
Bits per sample: 16
Bitrate: 973 kbps
Codec: FLAC

Analyzed: Nightwish / Gothic Spirits 2 CD1 (1) sToa / Gothic Spirits 2 CD1 (2)

DR Peak RMS Duration Track

DR4 -0.54 dB -7.34 dB 5:30 03-Walking in the Air
DR9 -0.10 dB -10.63 dB 5:04 15-In Memoriam

Number of tracks: 2
Official DR value: DR7

Samplerate: 44100 Hz
Channels: 2
Bits per sample: 16
Bitrate: 973 kbps
Codec: FLAC

Analyzed: Subway to Sally / Gothic Spirits 2 CD1 (1) Therion / Gothic Spirits 2 CD1 (2) Xandria / Gothic Spirits 2 CD1 (3)

DR Peak RMS Duration Track

DR5 -0.72 dB -6.27 dB 3:23 02-Sieben
DR7 -0.10 dB -8.39 dB 5:39 04-The Klysti Evangelist
DR5 -0.92 dB -7.76 dB 3:50 09-In Love With the Darkness

Number of tracks: 3
Official DR value: DR5

Samplerate: 44100 Hz
Channels: 2
Bits per sample: 16
Bitrate: 973 kbps
Codec: FLAC

[CUETools log; Date: 14.10.2015 17:34:40; Version: 2.1.4]
[CTDB TOCID: ssGFNR1kgB4lVcSWYy7X53PXfak-] found.
Track | CTDB Status
1 | (2/2) Accurately ripped
2 | (2/2) Accurately ripped
3 | (2/2) Accurately ripped
4 | (2/2) Accurately ripped
5 | (2/2) Accurately ripped
6 | (2/2) Accurately ripped
7 | (2/2) Accurately ripped
8 | (2/2) Accurately ripped
9 | (2/2) Accurately ripped
10 | (2/2) Accurately ripped
11 | (2/2) Accurately ripped
12 | (2/2) Accurately ripped
13 | (2/2) Accurately ripped
14 | (2/2) Accurately ripped
15 | (2/2) Accurately ripped
16 | (2/2) Accurately ripped
17 | (1/2) Accurately ripped, or (1/2) differs in 9743 samples @02:51:35-02:51:36,03:00:56-03:00:57,03:01:25,03:01:68,03:02:36-03:02:37,03:02:58-03:02:59,03:03:05-03:03:06,03:04:61-03:04:62,03:05:07-03:05:08,03:06:20,03:06:41,03:07:10-03:07:11,03:07:54,03:08:00-03:08:03,03:08:44,03:09:34-03:09:35,03:13:17-03:13:18,03:13:39-03:13:40,03:13:61-03:13:62,03:14:51,03:14:73-03:14:74,03:15:20-03:15:21,03:15:42-03:15:43,03:15:63-03:15:65,03:17:01-03:17:02,03:17:22-03:17:23,03:17:44-03:17:45,03:17:66-03:17:67,03:18:13-03:18:14,03:18:35-03:18:36,03:18:56-03:18:57,03:19:03-03:19:04,03:19:25-03:19:26,03:19:47-03:19:48,03:19:69-03:19:70,03:20:16,03:20:37-03:20:38,03:20:59-03:20:60,03:21:06-03:21:07,03:21:28-03:21:29,03:21:50,03:21:71-03:21:72,03:22:18-03:22:19,03:22:40-03:22:41,03:23:08-03:23:10,03:23:30-03:23:31
[AccurateRip ID: 0030b108-0264fa81-f511dd11] found.
Track [ CRC | V2 ] Status
01 [d320bb95|0a81aace] (2+0/2) Accurately ripped
02 [e7bfaebb|3af20e5a] (2+0/2) Accurately ripped
03 [11f6afd2|c2904657] (2+0/2) Accurately ripped
04 [d69832a5|b53accea] (2+0/2) Accurately ripped
05 [f8b3e681|8a7c3133] (2+0/2) Accurately ripped
06 [da2803fd|03d1194d] (2+0/2) Accurately ripped
07 [4ebe0f93|21c12f6a] (2+0/2) Accurately ripped
08 [9f962ea3|e874a348] (2+0/2) Accurately ripped
09 [6ce5e8bb|8cb8f038] (2+0/2) Accurately ripped
10 [afbb4b46|e7393aaf] (2+0/2) Accurately ripped
11 b38333f|4538968f (2+0/2) Accurately ripped
12 [f8ac8bd7|014d5ce5] (2+0/2) Accurately ripped
13 [2a7c6b6c|a32cc5ca] (2+0/2) Accurately ripped
14 [e006df04|dc07e16d] (2+0/2) Accurately ripped
15 [e178bc25|0b8e8fcb] (2+0/2) Accurately ripped
16 [0c82caaf|59ba5407] (2+0/2) Accurately ripped
17 [a06af654|6d27abf7] (2+0/2) Accurately ripped

Track Peak [ CRC32 ] [W/O NULL] [ LOG ]
-- 98,9 [84BB72E3] [C490B096] CRC32
01 91,9 [A3E99CC3] [A1F90ED3]
02 91,9 [C164183E] [E8F5361E]
03 93,9 [19BB82E4] [6646AF1D]
04 98,9 [513F1723] [8C3033EB]
05 86,9 [7F877DB2] [DCB8ECC1]
06 98,9 [D8DA2350] [048112BF]
07 89,9 [30D5DAAF] [0161F3AB]
08 98,4 [FAC7BB94] E77612F
09 89,9 [6ED7BA05] [8589C9EF]
10 98,9 [4861511F] [7C513DC2]
11 69,9 948B58C [FAE3E15D]
12 98,8 [FD5DEADF] [C598505A]
13 84,9 [A615B6EC] [98D0E0AC]
14 93,9 [AB97F986] [3C4F19E4]
15 98,8 [06359468] [4471DB92]
16 79,9 [FD3695C3] [1FBBDA5B]
17 97,7 [0D5D26C0] [AB7EC7DB]

Tracklist CD2:

01 - Nightwish - The Siren (3:47)
02 - Elis - Der letzte Tag (4:31)
03 - Crematory - Open Your Eyes (4:15)
04 - Kirlian Camera - Eclipse (6:46)
05 - De/Vision - Aimee (4:44)
06 - Visions of Atlantis - Send Me a Light (4:38)
07 - Clan of Xymox - A Day (6:40)
08 - Beseech - Bittersweet Tragedy (4:06)
09 - To/Die/For - Anos De Dolor (3:59)
10 - Atrocity - Enigma (4:15)
11 - Zeraphine - Die Macht in Dir (3:15)
12 - Angelzoom & Joachim Witt - Back in the Moment (3:40)
13 - Lacrimas Profundere - Ave End (3:47)
14 - Wolfsheim - Kein Zurück (3:51)
15 - Alquimia - Encinerada (4:38)
16 - Avalist - Silence (3:48)
17 - Code Indigo - Code 14 (6:18)

Exact Audio Copy V1.0 beta 3 from 29. August 2011

EAC extraction logfile from 30. January 2013, 14:38

Various Artists / Gothic Spirits 2

Used drive : TSSTcorpCDDVDW SH-S202N Adapter: 1 ID: 0

Read mode : Secure
Utilize accurate stream : Yes
Defeat audio cache : Yes
Make use of C2 pointers : No

Read offset correction

: 6
Overread into Lead-In and Lead-Out : No
Fill up missing offset samples with silence : Yes
Delete leading and trailing silent blocks : No
Null samples used in CRC calculations : Yes
Used interface
: Native Win32 interface for Win NT & 2000

Used output format : User Defined Encoder
Selected bitrate : 896 kBit/s
Quality : High
Add ID3 tag : No
Command line compressor : C:\Program Files (x86)\Exact Audio Copy\FLACCL\CUETools.FLACCL.cmd.exe
Additional command line options : -7 --verify %source% -o %dest%

TOC of the extracted CD Track | Start | Length | Start sector | End sector
--1 | 0:00.00 | 3:46.65 | 0 | 17014 2 | 3:46.65 | 4:30.43 | 17015 | 37307 3 | 8:17.33 | 4:14.60 | 37308 | 56417 4 | 12:32.18 | 6:45.69 | 56418 | 86861 5 | 19:18.12 | 4:43.38 | 86862 | 108124 6 | 24:01.50 | 4:37.66 | 108125 | 128965 7 | 28:39.41 | 6:39.61 | 128966 | 158951 8 | 35:19.27 | 4:05.58 | 158952 | 177384 9 | 39:25.10 | 3:58.68 | 177385 | 195302
10 | 43:24.03 | 4:14.55 | 195303 | 214407
11 | 47:38.58 | 3:14.63 | 214408 | 229020
12 | 50:53.46 | 3:39.64 | 229021 | 245509
13 | 54:33.35 | 3:46.58 | 245510 | 262517
14 | 58:20.18 | 3:50.67 | 262518 | 279834
15 | 62:11.10 | 4:37.67 | 279835 | 300676
16 | 66:49.02 | 3:48.34 | 300677 | 317810
17 | 70:37.36 | 6:18.25 | 317811 | 346185

Range status and errors

Selected range Filename C:\EAC\Gothic Spirits\Gothic Spirits 2\Gothic Spirits 2 CD2.wav Peak level 98.9 %
Extraction speed 8.1 X
Range quality 99.9 %
Copy CRC 94538AAD
Copy OK

No errors occurred


AccurateRip summary

Track 1 accurately ripped (confidence 2) [9E32C08F] (AR v1)
Track 2 accurately ripped (confidence 2) [A4D8F7A7] (AR v1)
Track 3 accurately ripped (confidence 2) [E3F40E79] (AR v1)
Track 4 accurately ripped (confidence 2) [7A670C42] (AR v1)
Track 5 accurately ripped (confidence 2) [FA649646] (AR v1)
Track 6 accurately ripped (confidence 2) [DBAE64C9] (AR v1)
Track 7 accurately ripped (confidence 2) [E13EEED3] (AR v1)
Track 8 accurately ripped (confidence 2) [F7023130] (AR v1)
Track 9 accurately ripped (confidence 2) [49F70D7A] (AR v1)
Track 10 accurately ripped (confidence 2) [098E348F] (AR v1)
Track 11 accurately ripped (confidence 2) [7672AF7C] (AR v1)
Track 12 accurately ripped (confidence 2) [3067EBDB] (AR v1)
Track 13 accurately ripped (confidence 2) [A1B1B295] (AR v1)
Track 14 accurately ripped (confidence 2) [8E835398] (AR v1)
Track 15 accurately ripped (confidence 2) [756032C3] (AR v1)
Track 16 accurately ripped (confidence 2) [6B5FAE81] (AR v1)
Track 17 accurately ripped (confidence 2) [C1D7C65C] (AR v1)

All tracks accurately ripped

End of status report

- CUETools DB Plugin V2.1.3

[CTDB TOCID: MOIIocQZ7k.by_OupoDZ3xg8EBI-] disk not present in database, Submit result: MOIIocQZ7k.by_OupoDZ3xg8EBI- has been uploaded

==== Log checksum 14D03617C5448B93347205F143AFE67F11113BBE088EF902D7DA52B030225D89 ====

foobar2000 1.2.9 / Dynamic Range Meter 1.1.1
log date: 2015-10-18 19:32:42

Statistics for: 12-Back in the Moment
Number of samples: 9695532
Duration: 3:40
Left Right

Peak Value: -0.92 dB -0.92 dB
Avg RMS: -7.96 dB -7.21 dB
DR channel: 4.44 dB 3.91 dB

Official DR Value: DR4

Samplerate: 44100 Hz
Channels: 2
Bits per sample: 16
Bitrate: 967 kbps
Codec: FLAC

Analyzed: Atrocity / Gothic Spirits 2 CD2 (1) Avalist / Gothic Spirits 2 CD2 (2)

DR Peak RMS Duration Track

DR5 -1.21 dB -7.12 dB 4:15 10-Enigma
DR7 -0.10 dB -9.92 dB 3:48 16-Silence

Number of tracks: 2
Official DR value: DR6

Samplerate: 44100 Hz
Channels: 2
Bits per sample: 16
Bitrate: 967 kbps
Codec: FLAC

Statistics for: 08-Bittersweet Tragedy
Number of samples: 10838604
Duration: 4:06
Left Right

Peak Value: -2.50 dB -2.50 dB
Avg RMS: -8.26 dB -7.99 dB
DR channel: 4.13 dB 3.94 dB

Official DR Value: DR4

Samplerate: 44100 Hz
Channels: 2
Bits per sample: 16
Bitrate: 967 kbps
Codec: FLAC

Analyzed: Clan of Xymox / Gothic Spirits 2 CD2 (1) Code Indigo / Gothic Spirits 2 CD2 (2)

DR Peak RMS Duration Track

DR9 -0.10 dB -9.92 dB 6:40 07-A Day
DR7 -0.30 dB -10.18 dB 6:18 17-Code 14

Number of tracks: 2
Official DR value: DR8

Samplerate: 44100 Hz
Channels: 2
Bits per sample: 16
Bitrate: 967 kbps
Codec: FLAC

Analyzed: Crematory / Gothic Spirits 2 CD2 (1) De/Vision / Gothic Spirits 2 CD2 (2)

DR Peak RMS Duration Track

DR5 -0.54 dB -7.21 dB 4:15 03-Open Your Eyes
DR6 -0.09 dB -8.37 dB 4:44 05-Aimee

Number of tracks: 2
Official DR value: DR5

Samplerate: 44100 Hz
Channels: 2
Bits per sample: 16
Bitrate: 967 kbps
Codec: FLAC

Analyzed: Elis / Gothic Spirits 2 CD2 (1) Kirlian Camera / Gothic Spirits 2 CD2 (2) Lacrimas Profundere / Gothic Spirits 2 CD2 (3)

DR Peak RMS Duration Track

DR3 -1.41 dB -5.77 dB 4:31 02-Der letzte Tag
DR5 -0.09 dB -7.12 dB 6:46 04-Eclipse
DR6 -0.20 dB -7.76 dB 3:47 13-Ave End

Number of tracks: 3
Official DR value: DR5

Samplerate: 44100 Hz
Channels: 2
Bits per sample: 16
Bitrate: 967 kbps
Codec: FLAC

Analyzed: Nightwish / Gothic Spirits 2 CD2 (1) To/Die/For / Gothic Spirits 2 CD2 (2)

DR Peak RMS Duration Track

DR6 -0.20 dB -7.93 dB 3:47 01-The Siren
DR6 -0.20 dB -7.42 dB 3:59 09-Anos De Dolor

Number of tracks: 2
Official DR value: DR6

Samplerate: 44100 Hz
Channels: 2
Bits per sample: 16
Bitrate: 967 kbps
Codec: FLAC

Analyzed: Visions of Atlantis / Gothic Spirits 2 CD2 (1) Wolfsheim / Gothic Spirits 2 CD2 (2)

DR Peak RMS Duration Track

DR5 -1.41 dB -7.94 dB 4:38 06-Send Me a Light
DR5 -0.12 dB -7.07 dB 3:51 14-Kein Zuruck

Number of tracks: 2
Official DR value: DR5

Samplerate: 44100 Hz
Channels: 2
Bits per sample: 16
Bitrate: 967 kbps
Codec: FLAC

Statistics for: 11-Die Macht in Dir
Number of samples: 8592444
Duration: 3:15
Left Right

Peak Value: -0.54 dB -0.54 dB
Avg RMS: -7.45 dB -7.45 dB
DR channel: 5.59 dB 5.56 dB

Official DR Value: DR6

Samplerate: 44100 Hz
Channels: 2
Bits per sample: 16
Bitrate: 967 kbps
Codec: FLAC

[CUETools log; Date: 14.10.2015 17:38:18; Version: 2.1.4]
[CTDB TOCID: MOIIocQZ7k.by_OupoDZ3xg8EBI-] found.
Track | CTDB Status
1 | (2/2) Accurately ripped
2 | (2/2) Accurately ripped
3 | (2/2) Accurately ripped
4 | (2/2) Accurately ripped
5 | (2/2) Accurately ripped
6 | (2/2) Accurately ripped
7 | (2/2) Accurately ripped
8 | (2/2) Accurately ripped
9 | (2/2) Accurately ripped
10 | (2/2) Accurately ripped
11 | (2/2) Accurately ripped
12 | (2/2) Accurately ripped
13 | (2/2) Accurately ripped
14 | (2/2) Accurately ripped
15 | (2/2) Accurately ripped
16 | (2/2) Accurately ripped
17 | (2/2) Accurately ripped
[AccurateRip ID: 003040bc-025f37f2-d9120711] found.
Track [ CRC | V2 ] Status
01 [9e32c08f|7f76e516] (2+0/2) Accurately ripped
02 [a4d8f7a7|8dbae780] (2+0/2) Accurately ripped
03 [e3f40e79|3395b7fe] (2+0/2) Accurately ripped
04 [7a670c42|c83c824e] (2+0/2) Accurately ripped
05 [fa649646|d54097b1] (2+0/2) Accurately ripped
06 [dbae64c9|36521228] (2+0/2) Accurately ripped
07 [e13eeed3|dd438d2f] (2+0/2) Accurately ripped
08 [f7023130|d59b1da1] (2+0/2) Accurately ripped
09 [49f70d7a|77dfa293] (2+0/2) Accurately ripped
10 [098e348f|8be63093] (2+0/2) Accurately ripped
11 [7672af7c|896398d1] (2+0/2) Accurately ripped
12 [3067ebdb|2b9ea696] (2+0/2) Accurately ripped
13 [a1b1b295|6a0acab8] (2+0/2) Accurately ripped
14 [8e835398|ba6456c2] (2+0/2) Accurately ripped
15 [756032c3|6ab17d05] (2+0/2) Accurately ripped
16 [6b5fae81|3ab8357d] (2+0/2) Accurately ripped
17 [c1d7c65c|1fedbc90] (2+0/2) Accurately ripped

Track Peak [ CRC32 ] [W/O NULL] [ LOG ]
-- 98,9 [94538AAD] [F089242C] CRC32
01 97,7 [8F59C004] [30DCA516]
02 84,9 [8A2D85AB] [91406126]
03 93,9 [13DFC795] [F174B8FF]
04 98,9 [F50141E8] [6C5F7E1B]
05 98,9 [6406BAFB] [66C5A93A]
06 84,9 [7AE82EBE] [86D7B31E]
07 98,8 39DF579 [CDCA51F6]
08 74,9 [95142567] [6F52F95A]
09 97,7 [8B3B3D5A] 3F083EB
10 86,9 [459BEF07] [C10E59BF]
11 93,9 [F84F1D8F] AE17E5A
12 89,9 [9A10FBE3] [E52F0ECD]
13 97,7 [D25A9B15] [4AF84B7C]
14 98,6 [511D24EE] [1EB8FA85]
15 96,7 [9CFF5734] [57C311BE]
16 98,8 [4C267C15] [10F63180]
17 96,6 [6E561622] [85E81C6A]

* * * * *

VA: Gothic Spirits 1 - 6 (2005-2007) [12CD, ZYX Music]

VA: Gothic Spirits 3 (2006)
EAC | Flac(Image) + Cue + Log & MP3 CBR 320Kbps
2CD | ZYX Music, ZYX 81816-2 | ~ 1146 or 369 Mb | Scans Included
Gothic / Symphonic / Industrial

Tracklist CD1:

01 - Nightwish - Wish I Had an Angel (4:03)
02 - Lacuna Coil - Heaven's a Lie (4:46)
03 - Xandria - Fight Me (3:36)
04 - Flowing Tears - Mine Is the Ocean (3:46)
05 - EverEve - A Scornful Love (4:08)
06 - Sinamore - Sleeping Away (4:53)
07 - Scream Silence - Homecoming (3:56)
08 - Amorphis - House of Sleep (4:15)
09 - Tiamat - Carry Your Cross and I'll Carry Mine (4:38)
10 - Naio Ssaion - The Mirror (3:45)
11 - Mandrake - The Necklace (4:04)
12 - Tristania - Libre (4:30)
13 - Orphenage - Driven (5:30)
14 - The Kovenant - Star by Star (4:22)
15 - Deathstars - Tongues (3:41)
16 - Crematory - Reign of Fire (4:35)
17 - Eisbrecher - Schwarze Witwe (3:53)
18 - Lacrimosa - Lichtgestalt (5:16)

Exact Audio Copy V1.0 beta 3 from 29. August 2011

EAC extraction logfile from 30. January 2013, 15:11

Various Artists / Gothic Spirits 3

Used drive : TSSTcorpCDDVDW SH-S202N Adapter: 1 ID: 0

Read mode : Secure
Utilize accurate stream : Yes
Defeat audio cache : Yes
Make use of C2 pointers : No

Read offset correction

: 6
Overread into Lead-In and Lead-Out : No
Fill up missing offset samples with silence : Yes
Delete leading and trailing silent blocks : No
Null samples used in CRC calculations : Yes
Used interface
: Native Win32 interface for Win NT & 2000

Used output format : User Defined Encoder
Selected bitrate : 896 kBit/s
Quality : High
Add ID3 tag : No
Command line compressor : C:\Program Files (x86)\Exact Audio Copy\FLACCL\CUETools.FLACCL.cmd.exe
Additional command line options : -7 --verify %source% -o %dest%

TOC of the extracted CD Track | Start | Length | Start sector | End sector
--1 | 0:00.00 | 4:03.35 | 0 | 18259 2 | 4:03.35 | 4:45.39 | 18260 | 39673 3 | 8:48.74 | 3:35.54 | 39674 | 55852 4 | 12:24.53 | 3:45.65 | 55853 | 72792 5 | 16:10.43 | 4:07.39 | 72793 | 91356 6 | 20:18.07 | 4:53.28 | 91357 | 113359 7 | 25:11.35 | 3:56.17 | 113360 | 131076 8 | 29:07.52 | 4:14.68 | 131077 | 150194 9 | 33:22.45 | 4:37.52 | 150195 | 171021
10 | 38:00.22 | 3:44.47 | 171022 | 187868
11 | 41:44.69 | 4:04.19 | 187869 | 206187
12 | 45:49.13 | 4:29.41 | 206188 | 226403
13 | 50:18.54 | 5:30.25 | 226404 | 251178
14 | 55:49.04 | 4:22.26 | 251179 | 270854
15 | 60:11.30 | 3:41.36 | 270855 | 287465
16 | 63:52.66 | 4:35.36 | 287466 | 308126
17 | 68:28.27 | 3:53.32 | 308127 | 325633
18 | 72:21.59 | 5:15.72 | 325634 | 349330

Range status and errors

Selected range Filename C:\EAC\Gothic Spirits\Gothic Spirits 3\Gothic Spirits 3 CD1.wav Peak level 98.9 %
Extraction speed 8.3 X
Range quality 100.0 %
Copy CRC 75309E99
Copy OK

No errors occurred


AccurateRip summary

Track 1 accurately ripped (confidence 3) [ADD1708A] (AR v1)
Track 2 accurately ripped (confidence 3) [4AEE4955] (AR v1)
Track 3 accurately ripped (confidence 3) A1851D6 (AR v1)
Track 4 accurately ripped (confidence 3) [66F49807] (AR v1)
Track 5 accurately ripped (confidence 3) [DD7EB1ED] (AR v1)
Track 6 accurately ripped (confidence 3) [9FDEA10F] (AR v1)
Track 7 accurately ripped (confidence 3) [9934BC95] (AR v1)
Track 8 accurately ripped (confidence 3) [30B95653] (AR v1)
Track 9 accurately ripped (confidence 3) [903EC9EF] (AR v1)
Track 10 accurately ripped (confidence 3) [EE04D331] (AR v1)
Track 11 accurately ripped (confidence 3) [A0477A21] (AR v1)
Track 12 accurately ripped (confidence 3) 05142CD (AR v1)
Track 13 accurately ripped (confidence 3) [601BA886] (AR v1)
Track 14 accurately ripped (confidence 3) [6C3FAAA1] (AR v1)
Track 15 accurately ripped (confidence 3) FED93E3 (AR v1)
Track 16 accurately ripped (confidence 3) [FDEBF837] (AR v1)
Track 17 accurately ripped (confidence 3) [D00C9B4E] (AR v1)
Track 18 accurately ripped (confidence 3) [ED36CA4F] (AR v1)

All tracks accurately ripped

End of status report

- CUETools DB Plugin V2.1.3

[CTDB TOCID: gX5Pw5b0scanxCBYPXYntxcm6Zo-] disk not present in database, Submit result: gX5Pw5b0scanxCBYPXYntxcm6Zo- has been uploaded

==== Log checksum 76FA5C5A22FAF6FE851FD41019C7D0A1FCF445ACE1DD427E9C1915C55B9ED53A ====

foobar2000 1.2.9 / Dynamic Range Meter 1.1.1
log date: 2015-10-18 19:33:40

Analyzed: Amorphis / Gothic Spirits 3 CD1 (1) Crematory / Gothic Spirits 3 CD1 (2)

DR Peak RMS Duration Track

DR7 -0.20 dB -8.00 dB 4:15 08-House of Sleep
DR6 -0.16 dB -7.90 dB 4:35 16-Reign of Fire

Number of tracks: 2
Official DR value: DR6

Samplerate: 44100 Hz
Channels: 2
Bits per sample: 16
Bitrate: 1010 kbps
Codec: FLAC

Analyzed: Deathstars / Gothic Spirits 3 CD1 (1) Eisbrecher / Gothic Spirits 3 CD1 (2)

DR Peak RMS Duration Track

DR5 -0.72 dB -7.61 dB 3:41 15-Tongues
DR7 -0.09 dB -8.44 dB 3:53 17-Schwarze Witwe

Number of tracks: 2
Official DR value: DR6

Samplerate: 44100 Hz
Channels: 2
Bits per sample: 16
Bitrate: 1010 kbps
Codec: FLAC

Statistics for: 05-A Scornful Love
Number of samples: 10915632
Duration: 4:08
Left Right

Peak Value: -0.72 dB -0.72 dB
Avg RMS: -6.03 dB -6.52 dB
DR channel: 4.28 dB 4.78 dB

Official DR Value: DR5

Samplerate: 44100 Hz
Channels: 2
Bits per sample: 16
Bitrate: 1010 kbps
Codec: FLAC

Analyzed: Flowing Tears / Gothic Spirits 3 CD1 (1) Lacrimosa / Gothic Spirits 3 CD1 (2)

DR Peak RMS Duration Track

DR4 -0.45 dB -5.53 dB 3:46 04-Mine Is the Ocean
DR7 -0.10 dB -9.11 dB 5:16 18-Lichtgestalt

Number of tracks: 2
Official DR value: DR6

Samplerate: 44100 Hz
Channels: 2
Bits per sample: 16
Bitrate: 1010 kbps
Codec: FLAC

Analyzed: Lacuna Coil / Gothic Spirits 3 CD1 (1) Mandrake / Gothic Spirits 3 CD1 (2)

DR Peak RMS Duration Track

DR6 -0.45 dB -7.42 dB 4:46 02-Heaven's a Lie
DR5 -0.54 dB -7.31 dB 4:04 11-The Necklace

Number of tracks: 2
Official DR value: DR5

Samplerate: 44100 Hz
Channels: 2
Bits per sample: 16
Bitrate: 1010 kbps
Codec: FLAC

Statistics for: 10-The Mirror
Number of samples: 9906036
Duration: 3:45
Left Right

Peak Value: -0.27 dB -0.27 dB
Avg RMS: -8.76 dB -9.04 dB
DR channel: 6.11 dB 6.35 dB

Official DR Value: DR6

Samplerate: 44100 Hz
Channels: 2
Bits per sample: 16
Bitrate: 1010 kbps
Codec: FLAC

Analyzed: Nightwish / Gothic Spirits 3 CD1 (1) Orphenage / Gothic Spirits 3 CD1 (2)

DR Peak RMS Duration Track

DR6 -0.27 dB -7.92 dB 4:03 01-Wish I Had an Angel
DR7 -0.18 dB -9.12 dB 5:30 13-Driven

Number of tracks: 2
Official DR value: DR7

Samplerate: 44100 Hz
Channels: 2
Bits per sample: 16
Bitrate: 1010 kbps
Codec: FLAC

Statistics for: 07-Homecoming
Number of samples: 10417596
Duration: 3:56
Left Right

Peak Value: -0.20 dB -0.20 dB
Avg RMS: -7.15 dB -7.11 dB
DR channel: 6.14 dB 6.15 dB

Official DR Value: DR6

Samplerate: 44100 Hz
Channels: 2
Bits per sample: 16
Bitrate: 1010 kbps
Codec: FLAC

Analyzed: Sinamore / Gothic Spirits 3 CD1 (1) The Kovenant / Gothic Spirits 3 CD1 (2)

DR Peak RMS Duration Track

DR5 -0.33 dB -6.67 dB 4:53 06-Sleeping Away
DR4 -1.94 dB -7.14 dB 4:22 14-Star by Star

Number of tracks: 2
Official DR value: DR5

Samplerate: 44100 Hz
Channels: 2
Bits per sample: 16
Bitrate: 1010 kbps
Codec: FLAC

Analyzed: Tiamat / Gothic Spirits 3 CD1 (1) Tristania / Gothic Spirits 3 CD1 (2)

DR Peak RMS Duration Track

DR7 -0.20 dB -9.03 dB 4:38 09-Carry Your Cross and I'll Carry Mine
DR6 -0.18 dB -7.64 dB 4:30 12-Libre

Number of tracks: 2
Official DR value: DR7

Samplerate: 44100 Hz
Channels: 2
Bits per sample: 16
Bitrate: 1010 kbps
Codec: FLAC

Statistics for: 03-Fight Me
Number of samples: 9513252
Duration: 3:36
Left Right

Peak Value: -0.45 dB -0.45 dB
Avg RMS: -6.78 dB -6.92 dB
DR channel: 5.15 dB 5.25 dB

Official DR Value: DR5

Samplerate: 44100 Hz
Channels: 2
Bits per sample: 16
Bitrate: 1010 kbps
Codec: FLAC

[CUETools log; Date: 14.10.2015 17:48:18; Version: 2.1.4]
[CTDB TOCID: gX5Pw5b0scanxCBYPXYntxcm6Zo-] found.
Track | CTDB Status
1 | (2/2) Accurately ripped
2 | (2/2) Accurately ripped
3 | (2/2) Accurately ripped
4 | (2/2) Accurately ripped
5 | (2/2) Accurately ripped
6 | (2/2) Accurately ripped
7 | (2/2) Accurately ripped
8 | (2/2) Accurately ripped
9 | (2/2) Accurately ripped
10 | (2/2) Accurately ripped
11 | (2/2) Accurately ripped
12 | (2/2) Accurately ripped
13 | (2/2) Accurately ripped
14 | (2/2) Accurately ripped
15 | (2/2) Accurately ripped
16 | (2/2) Accurately ripped
17 | (2/2) Accurately ripped
18 | (2/2) Accurately ripped
[AccurateRip ID: 0031b144-02993487-d0123112] found.
Track [ CRC | V2 ] Status
01 [add1708a|a0b4d13e] (3+0/5) Accurately ripped
02 [4aee4955|04877557] (3+0/5) Accurately ripped
03 a1851d6|4572e55b (3+0/5) Accurately ripped
04 [66f49807|decc4e35] (3+0/5) Accurately ripped
05 [dd7eb1ed|bc2caacd] (3+0/5) Accurately ripped
06 [9fdea10f|db8067a0] (3+0/5) Accurately ripped
07 [9934bc95|00731d82] (3+0/5) Accurately ripped
08 [30b95653|1e0c34dd] (3+0/5) Accurately ripped
09 [903ec9ef|03726a5c] (3+0/5) Accurately ripped
10 [ee04d331|ff1a7288] (3+0/5) Accurately ripped
11 [a0477a21|e710a115] (3+0/5) Accurately ripped
12 05142cd|31348ad7 (3+0/5) Accurately ripped
13 [601ba886|7625bc44] (3+0/5) Accurately ripped
14 [6c3faaa1|64ff9baa] (3+0/5) Accurately ripped
15 fed93e3|7f762887 (3+0/5) Accurately ripped
16 [fdebf837|92cb77fb] (3+0/5) Accurately ripped
17 [d00c9b4e|5796ac90] (3+0/5) Accurately ripped
18 [ed36ca4f|54307dc5] (3+0/5) Accurately ripped
Offsetted by 86:
01 [4347d144] (2/5) Acc

Direct Download

Tags: Gothic, Spirits

VA: Gothic Spirits 1 - 6 (2005-2007) [12CD, ZYX Music] Download via Hotfile Rapidshare Fileserve Megaupload & FileSonic, VA: Gothic Spirits 1 - 6 (2005-2007) [12CD, ZYX Music] free torrent downloads included crack, serial, keygen.


Attention!Information

Members of Guest cannot leave comments.