Theodore Dubois - Portrait: Musique Sacree et Symphonique - Musique de Chambre (2015) [3CD Set] {Palazzetto Bru Zane}

Download Now


Theodore Dubois - Portrait: Musique Sacree et Symphonique - Musique de Chambre (2015) [3CD Set] {Palazzetto Bru Zane}
Theodore Dubois - Portrait: Musique Sacree et Symphonique - Musique de Chambre (2015) [3CD Set] {Palazzetto Bru Zane}
EAC rip (secure mode) | FLAC (tracks)+CUE+LOG -> 824 Gb | MP3 @320 -> 459 Gb | Artwork | 5% repair rar
© 2015 Palazzetto Bru Zane | ES 1018
Classical / Romantic / Symphony / Chamber Music / Sacred Music

"Each of the volumes in the ‘Portraits' series is devoted to a French composer who has been unjustly neglected, and takes a general look at that composer's output through performances by many talented artists. The texts (French/English) are completed by varied and hitherto unpublished iconography. Théodore Dubois is the perfect example of the ‘official' composer during the time of French Romanticism: he successively was a Prix de Rome recipient (1861), organist at the Madeleine (1877), an academician (1894), and Director of the Conservatoire (1896) where he had been teaching since 1871. However, so much injustice as well as honour was heaped upon his music − accused of academic rigidity − that it is important to rehear it to be in a better position to judge its real interest value."

tracklist and personnel:
CD 1 :

Symphonie nº 2 en si mineur
1- Allegro con moto
2- Andante grave, quasi adagio
3- Allegretto
4- Allegro con moto
Brussels Philharmonic - Hervé Niquet, direction

Sonate pour piano en la mineur
5- Allegro moderato con fuoco
6- Andante quasi adagio
7- Largo - Allegro focoso
Romain Descharmes, piano

CD 2 :

Messe pontificale
1- Kyrie
2- Gloria
3- Credo
4- Sanctus
5- O Salutaris
6- Agnus Dei
Chantal Santon, soprano - Jennifer Borghi, mezzo-soprano
Mathias Vidal, ténor - Alain Buet, baryton
Solistes du Brussels Philharmonic - François Saint-Yves, orgue
Flemish Radio Choir - Hervé Niquet, direction

7- Panis angelicus
Marie Kalinine, mezzo-soprano
Solistes du Brussels Philharmonic - François Saint-Yves, orgue
Flemish Radio Choir - Hervé Niquet, direction

8- O Salutaris
Marie Kalinine, mezzo-soprano
Solistes du Brussels Philharmonic - François Saint-Yves, orgue
Flemish Radio Choir - Hervé Niquet, direction

9- Ave verum
Marie Kalinine, mezzo-soprano
François Saint-Yves, orgue

10- Ave Maria
11- O Salutaris
12- Ave Maria
François Saint-Yves, orgue
Flemish Radio Choir - Hervé Niquet, direction

CD 3 :

Symphonie française en fa mineur
1- Largo - Allegro
2- Andantino
3- Allegro vivo, scherzando
4- Allegro con fuoco
Les Siècles - François-Xavier Roth, direction

Quatuor pour violon, alto, violoncelle et piano en la mineur
5- Allegro agitato
6- Andante molto espressivo
7- Allegro leggero
8- Allegro con fuoco
Quatuor Giardini :
Pascal Monlong, violon - Caroline Donin, alto
Pauline Buet, violoncelle - David Violi, piano

Exact Audio Copy V1.1 from 23. June 2015

EAC extraction logfile from 18. October 2015, 12:45

Various Artists / Musique sacree et symphonique, Musique de chambre CD I

Used drive : ATAPI iHBS112 2 Adapter: 1 ID: 0

Read mode : Secure
Utilize accurate stream : Yes
Defeat audio cache : Yes
Make use of C2 pointers : No

Read offset correction

: 6
Overread into Lead-In and Lead-Out : No
Fill up missing offset samples with silence : Yes
Delete leading and trailing silent blocks : No
Null samples used in CRC calculations : Yes
Used interface
: Native Win32 interface for Win NT & 2000
Gap handling
: Appended to previous track

Used output format : User Defined Encoder
Selected bitrate : 1024 kBit/s
Quality : High
Add ID3 tag : No
Command line compressor : C:\Program Files\Exact Audio Copy\Flac\flac.exe
Additional command line options : -8 -V -T "ARTIST=%artist%" -T "TITLE=%title%" -T "ALBUM=%albumtitle%" -T "DATE=%year%" -T "TRACKNUMBER=%tracknr%" -T "TOTALTRACKS=%numtracks%" -T "GENRE=%genre%" -T "ALBUMARTIST=%albumartist%" -T "ALBUM ARTIST=%albumartist%" -T "COMPOSER=%composer%" -T "PERFORMER=%albuminterpret%" -T "DISCNUMBER=%cdnumber%" -T "TOTALDISCS=%totalcds%" -T "COMMENT=EAC Secure Mode, Test & Copy, AccurateRip, FLAC -8" %source%

TOC of the extracted CD Track | Start | Length | Start sector | End sector
--1 | 0:00.00 | 9:50.00 | 0 | 44249 2 | 9:50.00 | 6:43.21 | 44250 | 74495 3 | 16:33.21 | 4:48.33 | 74496 | 96128 4 | 21:21.54 | 10:04.05 | 96129 | 141433 5 | 31:25.59 | 10:06.38 | 141434 | 186921 6 | 41:32.22 | 8:56.00 | 186922 | 227121 7 | 50:28.22 | 8:23.09 | 227122 | 264855

Track 1 Filename P:\DL\Various Artists - Musique sacree et symphonique, Musique de chambre CD I (2015) [FLAC]\01 - Brussels Philharmonic - Herve Niquet - Symphonie no. 2 en si mineur - I. Allegro con moto.wav Pre-gap length 0:00:02.00 Peak level 98.9 %
Extraction speed 1.3 X
Track quality 100.0 %
Test CRC B5D7A7FF
Copy CRC B5D7A7FF
Accurately ripped (confidence 1) [899C6FF4] (AR v2)
Copy OK

Track 2 Filename P:\DL\Various Artists - Musique sacree et symphonique, Musique de chambre CD I (2015) [FLAC]\02 - Brussels Philharmonic - Herve Niquet - Symphonie no. 2 en si mineur - II. Andante grave, quasi adagio.wav Pre-gap length 0:00:02.12 Peak level 98.8 %
Extraction speed 1.5 X
Track quality 100.0 %
Test CRC A189EB85
Copy CRC A189EB85
Accurately ripped (confidence 1) [8B202261] (AR v2)
Copy OK

Track 3 Filename P:\DL\Various Artists - Musique sacree et symphonique, Musique de chambre CD I (2015) [FLAC]\03 - Brussels Philharmonic - Herve Niquet - Symphonie no. 2 en si mineur - III. Allegretto.wav Pre-gap length 0:00:03.25 Peak level 52.7 %
Extraction speed 1.6 X
Track quality 100.0 %
Test CRC E1C7ED74
Copy CRC E1C7ED74
Accurately ripped (confidence 1) [11FE0FFE] (AR v2)
Copy OK

Track 4 Filename P:\DL\Various Artists - Musique sacree et symphonique, Musique de chambre CD I (2015) [FLAC]\04 - Brussels Philharmonic - Herve Niquet - Symphonie no. 2 en si mineur - IV. Allegro con moto.wav Pre-gap length 0:00:03.42 Peak level 98.9 %
Extraction speed 1.8 X
Track quality 100.0 %
Test CRC 459887EA
Copy CRC 459887EA
Accurately ripped (confidence 1) [532A8FCD] (AR v2)
Copy OK

Track 5 Filename P:\DL\Various Artists - Musique sacree et symphonique, Musique de chambre CD I (2015) [FLAC]\05 - Romain Descharmes - Sonate pour piano en la mineur - I. Allegro moderato con fuoco.wav Pre-gap length 0:00:08.52 Peak level 79.3 %
Extraction speed 2.0 X
Track quality 100.0 %
Test CRC 51F04F63
Copy CRC 51F04F63
Accurately ripped (confidence 1) [392ED4D0] (AR v2)
Copy OK

Track 6 Filename P:\DL\Various Artists - Musique sacree et symphonique, Musique de chambre CD I (2015) [FLAC]\06 - Romain Descharmes - Sonate pour piano en la mineur - II. Andante quasi adagio.wav Peak level 63.3 %
Extraction speed 2.2 X
Track quality 100.0 %
Test CRC 6ACE12DB
Copy CRC 6ACE12DB
Accurately ripped (confidence 1) [3DE743A9] (AR v2)
Copy OK

Track 7 Filename P:\DL\Various Artists - Musique sacree et symphonique, Musique de chambre CD I (2015) [FLAC]\07 - Romain Descharmes - Sonate pour piano en la mineur - III. Largo - Allegro focoso.wav Peak level 77.3 %
Extraction speed 2.3 X
Track quality 100.0 %
Test CRC D2F0C667
Copy CRC D2F0C667
Accurately ripped (confidence 1) [8ABBE950] (AR v2)
Copy OK

All tracks accurately ripped

No errors occurred

End of status report

- CUETools DB Plugin V2.1.6

[CTDB TOCID: 5DHIaAmcK69SOQTNmN_.pQaIf8k-] found
Submit result:
Track | CTDB Status
1 | (1/1) Accurately ripped
2 | (1/1) Accurately ripped
3 | (1/1) Accurately ripped
4 | (1/1) Accurately ripped
5 | (1/1) Accurately ripped
6 | (1/1) Accurately ripped
7 | (1/1) Accurately ripped

==== Log checksum 88B4D25864642637A893368CB9C9B105A4946466D8274306F684BB25934ED841 ====

Exact Audio Copy V1.1 from 23. June 2015

EAC extraction logfile from 18. October 2015, 16:07

Various Artists / Musique sacree et symphonique, Musique de chambre CD 2

Used drive : ATAPI iHBS112 2 Adapter: 1 ID: 0

Read mode : Secure
Utilize accurate stream : Yes
Defeat audio cache : Yes
Make use of C2 pointers : No

Read offset correction

: 6
Overread into Lead-In and Lead-Out : No
Fill up missing offset samples with silence : Yes
Delete leading and trailing silent blocks : No
Null samples used in CRC calculations : Yes
Used interface
: Native Win32 interface for Win NT & 2000
Gap handling
: Appended to previous track

Used output format : User Defined Encoder
Selected bitrate : 1024 kBit/s
Quality : High
Add ID3 tag : No
Command line compressor : C:\Program Files\Exact Audio Copy\Flac\flac.exe
Additional command line options : -8 -V -T "ARTIST=%artist%" -T "TITLE=%title%" -T "ALBUM=%albumtitle%" -T "DATE=%year%" -T "TRACKNUMBER=%tracknr%" -T "TOTALTRACKS=%numtracks%" -T "GENRE=%genre%" -T "ALBUMARTIST=%albumartist%" -T "ALBUM ARTIST=%albumartist%" -T "COMPOSER=%composer%" -T "PERFORMER=%albuminterpret%" -T "DISCNUMBER=%cdnumber%" -T "TOTALDISCS=%totalcds%" -T "COMMENT=EAC Secure Mode, Test & Copy, AccurateRip, FLAC -8" %source%

TOC of the extracted CD Track | Start | Length | Start sector | End sector
--1 | 0:00.00 | 6:06.12 | 0 | 27461 2 | 6:06.12 | 14:13.08 | 27462 | 91444 3 | 20:19.20 | 13:00.40 | 91445 | 149984 4 | 33:19.60 | 2:01.27 | 149985 | 159086 5 | 35:21.12 | 2:56.60 | 159087 | 172346 6 | 38:17.72 | 5:06.24 | 172347 | 195320 7 | 43:24.21 | 4:01.08 | 195321 | 213403 8 | 47:25.29 | 2:38.21 | 213404 | 225274 9 | 50:03.50 | 4:27.41 | 225275 | 245340
10 | 54:31.16 | 2:27.46 | 245341 | 256411
11 | 56:58.62 | 2:13.24 | 256412 | 266410
12 | 59:12.11 | 3:28.10 | 266411 | 282020

Track 1 Filename P:\DL\Various Artists - Musique sacree et symphonique, Musique de chambre CD 2 (2015) [FLAC]\01 - Messe pontificale - I. Kyrie.wav Pre-gap length 0:00:02.00 Peak level 99.4 %
Extraction speed 1.3 X
Track quality 99.9 %
Test CRC 7667BDE8
Copy CRC 7667BDE8
Accurately ripped (confidence 1) [69B665CC] (AR v2)
Copy OK

Track 2 Filename P:\DL\Various Artists - Musique sacree et symphonique, Musique de chambre CD 2 (2015) [FLAC]\02 - Messe pontificale - II. Gloria.wav Peak level 99.5 %
Extraction speed 1.6 X
Track quality 100.0 %
Test CRC 24BBEE76
Copy CRC 24BBEE76
Accurately ripped (confidence 1) [CD790BAB] (AR v2)
Copy OK

Track 3 Filename P:\DL\Various Artists - Musique sacree et symphonique, Musique de chambre CD 2 (2015) [FLAC]\03 - Messe pontificale - III. Credo.wav Pre-gap length 0:00:01.76 Peak level 99.4 %
Extraction speed 1.9 X
Track quality 99.9 %
Test CRC 80B113EB
Copy CRC 80B113EB
Accurately ripped (confidence 1) [F030041A] (AR v2)
Copy OK

Track 4 Filename P:\DL\Various Artists - Musique sacree et symphonique, Musique de chambre CD 2 (2015) [FLAC]\04 - Messe pontificale - IV. Sanctus.wav Peak level 96.3 %
Extraction speed 1.7 X
Track quality 100.0 %
Test CRC 8D610426
Copy CRC 8D610426
Accurately ripped (confidence 1) [1C80E4C8] (AR v2)
Copy OK

Track 5 Filename P:\DL\Various Artists - Musique sacree et symphonique, Musique de chambre CD 2 (2015) [FLAC]\05 - Messe pontificale - V. O Salutaris.wav Peak level 85.2 %
Extraction speed 1.9 X
Track quality 100.0 %
Test CRC A7337B42
Copy CRC A7337B42
Accurately ripped (confidence 1) [79D8FDCC] (AR v2)
Copy OK

Track 6 Filename P:\DL\Various Artists - Musique sacree et symphonique, Musique de chambre CD 2 (2015) [FLAC]\06 - Messe pontificale - VI. Agnus Dei.wav Pre-gap length 0:00:02.01 Peak level 99.0 %
Extraction speed 2.1 X
Track quality 100.0 %
Test CRC 04D82AD9
Copy CRC 04D82AD9
Accurately ripped (confidence 1) [CB35376B] (AR v2)
Copy OK

Track 7 Filename P:\DL\Various Artists - Musique sacree et symphonique, Musique de chambre CD 2 (2015) [FLAC]\07 - Panis Angelicus.wav Peak level 59.4 %
Extraction speed 2.1 X
Track quality 100.0 %
Test CRC FF2345B0
Copy CRC FF2345B0
Accurately ripped (confidence 1) [47802467] (AR v2)
Copy OK

Track 8 Filename P:\DL\Various Artists - Musique sacree et symphonique, Musique de chambre CD 2 (2015) [FLAC]\08 - O Salutaris.wav Pre-gap length 0:00:01.20 Peak level 94.7 %
Extraction speed 2.0 X
Track quality 100.0 %
Test CRC E5374210
Copy CRC E5374210
Accurately ripped (confidence 1) [9F1F2C99] (AR v2)
Copy OK

Track 9 Filename P:\DL\Various Artists - Musique sacree et symphonique, Musique de chambre CD 2 (2015) [FLAC]\09 - Ave verum.wav Pre-gap length 0:00:02.09 Peak level 70.5 %
Extraction speed 2.0 X
Track quality 99.9 %
Test CRC 613B4F14
Copy CRC 613B4F14
Accurately ripped (confidence 1) [89D467F2] (AR v2)
Copy OK

Track 10 Filename P:\DL\Various Artists - Musique sacree et symphonique, Musique de chambre CD 2 (2015) [FLAC]\10 - Ave Maria.wav Pre-gap length 0:00:00.62 Peak level 72.2 %
Extraction speed 2.1 X
Track quality 100.0 %
Test CRC 9E961291
Copy CRC 9E961291
Accurately ripped (confidence 1) [7516F1A3] (AR v2)
Copy OK

Track 11 Filename P:\DL\Various Artists - Musique sacree et symphonique, Musique de chambre CD 2 (2015) [FLAC]\11 - O Salutaris.wav Pre-gap length 0:00:00.37 Peak level 99.4 %
Extraction speed 2.1 X
Track quality 100.0 %
Test CRC 2386CC09
Copy CRC 2386CC09
Accurately ripped (confidence 1) [DBD9D5FC] (AR v2)
Copy OK

Track 12 Filename P:\DL\Various Artists - Musique sacree et symphonique, Musique de chambre CD 2 (2015) [FLAC]\12 - Ave Maria.wav Pre-gap length 0:00:01.84 Peak level 88.5 %
Extraction speed 1.9 X
Track quality 99.9 %
Test CRC A20EFA74
Copy CRC A20EFA74
Accurately ripped (confidence 1) [D970D4FE] (AR v2)
Copy OK

All tracks accurately ripped

No errors occurred

End of status report

- CUETools DB Plugin V2.1.6

[CTDB TOCID: Bkd.vT697NQ924p7.pdlTbE58tw-] found
Submit result:
Track | CTDB Status
1 | (1/1) Accurately ripped
2 | (1/1) Accurately ripped
3 | (1/1) Accurately ripped
4 | (1/1) Accurately ripped
5 | (1/1) Accurately ripped
6 | (1/1) Accurately ripped
7 | (1/1) Accurately ripped
8 | (1/1) Accurately ripped
9 | (1/1) Accurately ripped
10 | (1/1) Accurately ripped
11 | (1/1) Accurately ripped
12 | (1/1) Accurately ripped

==== Log checksum C163253FE027BA768F1E5193142EB81ADA0915F2CB1310B6022EC4D4D417D930 ====

Exact Audio Copy V1.1 from 23. June 2015

EAC extraction logfile from 18. October 2015, 17:02

Various Artists / Musique sacree et symphonique, Musique de chambre CD 3

Used drive : ATAPI iHBS112 2 Adapter: 1 ID: 0

Read mode : Secure
Utilize accurate stream : Yes
Defeat audio cache : Yes
Make use of C2 pointers : No

Read offset correction

: 6
Overread into Lead-In and Lead-Out : No
Fill up missing offset samples with silence : Yes
Delete leading and trailing silent blocks : No
Null samples used in CRC calculations : Yes
Used interface
: Native Win32 interface for Win NT & 2000
Gap handling
: Appended to previous track

Used output format : User Defined Encoder
Selected bitrate : 1024 kBit/s
Quality : High
Add ID3 tag : No
Command line compressor : C:\Program Files\Exact Audio Copy\Flac\flac.exe
Additional command line options : -8 -V -T "ARTIST=%artist%" -T "TITLE=%title%" -T "ALBUM=%albumtitle%" -T "DATE=%year%" -T "TRACKNUMBER=%tracknr%" -T "TOTALTRACKS=%numtracks%" -T "GENRE=%genre%" -T "ALBUMARTIST=%albumartist%" -T "ALBUM ARTIST=%albumartist%" -T "COMPOSER=%composer%" -T "PERFORMER=%albuminterpret%" -T "DISCNUMBER=%cdnumber%" -T "TOTALDISCS=%totalcds%" -T "COMMENT=EAC Secure Mode, Test & Copy, AccurateRip, FLAC -8" %source%

TOC of the extracted CD Track | Start | Length | Start sector | End sector
--1 | 0:00.00 | 13:05.56 | 0 | 58930 2 | 13:05.56 | 9:55.62 | 58931 | 103617 3 | 23:01.43 | 6:42.31 | 103618 | 133798 4 | 29:43.74 | 9:05.30 | 133799 | 174703 5 | 38:49.29 | 11:54.07 | 174704 | 228260 6 | 50:43.36 | 9:04.00 | 228261 | 269060 7 | 59:47.36 | 4:01.01 | 269061 | 287136 8 | 63:48.37 | 8:03.13 | 287137 | 323374

Track 1 Filename P:\DL\Various Artists - Musique sacree et symphonique, Musique de chambre CD 3 (2015) [FLAC]\01 - Les Siecles - Francois-Xavier Roth - Symphonie francaise en fa mineur - I. Largo - Allegro.wav Pre-gap length 0:00:02.00 Peak level 99.2 %
Extraction speed 2.6 X
Track quality 100.0 %
Test CRC 792920F1
Copy CRC 792920F1
Accurately ripped (confidence 1) [9A567746] (AR v2)
Copy OK

Track 2 Filename P:\DL\Various Artists - Musique sacree et symphonique, Musique de chambre CD 3 (2015) [FLAC]\02 - Les Siecles - Francois-Xavier Roth - Symphonie francaise en fa mineur - II. Andantino.wav Pre-gap length 0:00:01.08 Peak level 98.7 %
Extraction speed 3.1 X
Track quality 100.0 %
Test CRC F3768510
Copy CRC F3768510
Accurately ripped (confidence 1) [E0CDC865] (AR v2)
Copy OK

Track 3 Filename P:\DL\Various Artists - Musique sacree et symphonique, Musique de chambre CD 3 (2015) [FLAC]\03 - Les Siecles - Francois-Xavier Roth - Symphonie francaise en fa mineur - III. Allegro vivo, scherzando.wav Pre-gap length 0:00:03.54 Peak level 99.3 %
Extraction speed 3.2 X
Track quality 100.0 %
Test CRC 6E5D610F
Copy CRC 6E5D610F
Accurately ripped (confidence 1) [E4A802D6] (AR v2)
Copy OK

Track 4 Filename P:\DL\Various Artists - Musique sacree et symphonique, Musique de chambre CD 3 (2015) [FLAC]\04 - Les Siecles - Francois-Xavier Roth - Symphonie francaise en fa mineur - IV. Allegro con fuoco.wav Pre-gap length 0:00:03.17 Peak level 99.3 %
Extraction speed 3.6 X
Track quality 100.0 %
Test CRC C9125A86
Copy CRC C9125A86
Accurately ripped (confidence 1) [8CFC91DA] (AR v2)
Copy OK

Track 5 Filename P:\DL\Various Artists - Musique sacree et symphonique, Musique de chambre CD 3 (2015) [FLAC]\05 - Quatuor Giardini - Quatuor pour violon, alto, violoncelle et piano en la mineur - I. Allegro agitato.wav Pre-gap length 0:00:04.12 Peak level 92.8 %
Extraction speed 3.6 X
Track quality 99.9 %
Test CRC C57C9E3F
Copy CRC C57C9E3F
Accurately ripped (confidence 1) [3BA954C3] (AR v2)
Copy OK

Track 6 Filename P:\DL\Various Artists - Musique sacree et symphonique, Musique de chambre CD 3 (2015) [FLAC]\06 - Quatuor Giardini - Quatuor pour violon, alto, violoncelle et piano en la mineur - II. Andante molto espressivo.wav Pre-gap length 0:00:01.74 Peak level 79.7 %
Extraction speed 4.2 X
Track quality 100.0 %
Test CRC 9483FE9E
Copy CRC 9483FE9E
Accurately ripped (confidence 1) [83E6682D] (AR v2)
Copy OK

Track 7 Filename P:\DL\Various Artists - Musique sacree et symphonique, Musique de chambre CD 3 (2015) [FLAC]\07 - Quatuor Giardini - Quatuor pour violon, alto, violoncelle et piano en la mineur - III. Allegro leggiero.wav Pre-gap length 0:00:02.74 Peak level 67.6 %
Extraction speed 3.1 X
Track quality 99.9 %
Test CRC 1C7E2367
Copy CRC 1C7E2367
Accurately ripped (confidence 1) [9895ADF4] (AR v2)
Copy OK

Track 8 Filename P:\DL\Various Artists - Musique sacree et symphonique, Musique de chambre CD 3 (2015) [FLAC]\08 - Quatuor Giardini - Quatuor pour violon, alto, violoncelle et piano en la mineur - IV. Allegro con fuoco.wav Peak level 89.4 %
Extraction speed 4.6 X
Track quality 100.0 %
Test CRC 198BCC32
Copy CRC 198BCC32
Accurately ripped (confidence 1) [345A6374] (AR v2)
Copy OK

All tracks accurately ripped

No errors occurred

End of status report

- CUETools DB Plugin V2.1.6

[CTDB TOCID: XI0l0JY6G2tvqgS3mkViu2BtaTo-] found
Submit result:
Track | CTDB Status
1 | (1/1) Accurately ripped
2 | (1/1) Accurately ripped
3 | (1/1) Accurately ripped
4 | (1/1) Accurately ripped
5 | (1/1) Accurately ripped
6 | (1/1) Accurately ripped
7 | (1/1) Accurately ripped
8 | (1/1) Accurately ripped

==== Log checksum C21D55790D9BBC446067BB85D01556517A4133D4FEAF6C0D8DF5293BE387EAE1 ====

Theodore Dubois - Portrait: Musique Sacree et Symphonique - Musique de Chambre (2015) [3CD Set] {Palazzetto Bru Zane}


thanks to dtromp...
Download Links:
(Premium Recommended)


All above links are interchangable. No password

Direct Download

Tags: Theodore, Dubois, Portrait, Musique, Sacree, Symphonique, Musique, Chambre, Palazzetto

Theodore Dubois - Portrait: Musique Sacree et Symphonique - Musique de Chambre (2015) [3CD Set] {Palazzetto Bru Zane} Download via Hotfile Rapidshare Fileserve Megaupload & FileSonic, Theodore Dubois - Portrait: Musique Sacree et Symphonique - Musique de Chambre (2015) [3CD Set] {Palazzetto Bru Zane} free torrent downloads included crack, serial, keygen.


Attention!Information

Members of Guest cannot leave comments.