Dave Holland - Life Cycle (1983) {ECM 1238}

Download Now

Dave Holland - Life Cycle (1983) {ECM 1238}

Dave Holland - Life Cycle (1983) {ECM 1238}
EAC 0.99pb4 | FLAC Image level 8 | Cue+Log | Full Scans 300dpi | 191MB + 5% Recovery
Genre: Jazz

"Holland picks up here where he left off on Emerald Tears with this overlooked solo album, which finds him swapping his usual upright for cello. While Holland is obviously no stranger to the instrument, it is such a rare pleasure to hear the cello alone at his bow. The bread and butter of this set is the eponymous five-parter, which indeed seems to trace a life from beginning to end. It is not only a cycle, but also its affirmation, such that the birth cries of "Inception" rend us with the thrill of being in a way that suggests awareness of a former existence."

Track List
01. Inception 4:21
02. Discovery 4:28
03. Longing 4:29
04. Search 3:28
05. Resolution 4:39
06. Sonnet 2:26
07. Rune 4:29
08. Troubadour Tale 3:08
09. Grapevine 3:33
10. Morning Song 2:03
11. Chanson Pour La Nuit 4:56

Dave Holland - cello

Produced by Manfred Eicher

Exact Audio Copy V0.99 prebeta 4 from 23. January 2008

EAC extraction logfile from 8. May 2009, 16:55

David Holland / Life Cycle

Used drive : PLEXTOR DVDR PX-800A Adapter: 1 ID: 1

Read mode : Secure
Utilize accurate stream : Yes
Defeat audio cache : Yes
Make use of C2 pointers : No

Read offset correction

: 48
Overread into Lead-In and Lead-Out : No
Fill up missing offset samples with silence : Yes
Delete leading and trailing silent blocks : No
Null samples used in CRC calculations : Yes
Used interface
: Installed external ASPI interface

Used output format : Internal WAV Routines
Sample format : 44.100 Hz; 16 Bit; Stereo

TOC of the extracted CD Track | Start | Length | Start sector | End sector
--1 | 0:00.00 | 4:19.52 | 0 | 19476 2 | 4:19.52 | 4:28.25 | 19477 | 39601 3 | 8:48.02 | 4:29.63 | 39602 | 59839 4 | 13:17.65 | 3:28.00 | 59840 | 75439 5 | 16:45.65 | 4:43.12 | 75440 | 96676 6 | 21:29.02 | 2:24.63 | 96677 | 107539 7 | 23:53.65 | 4:30.50 | 107540 | 127839 8 | 28:24.40 | 3:07.05 | 127840 | 141869 9 | 31:31.45 | 3:33.15 | 141870 | 157859
10 | 35:04.60 | 2:02.42 | 157860 | 167051
11 | 37:07.27 | 4:54.13 | 167052 | 189114

Range status and errors

Selected range Filename E:\Dave Holland Images\Life Cycle\Life Cycle.wav Peak level 76.5 %
Range quality 100.0 %
Copy CRC 313D62D3
Copy OK

No errors occurred


AccurateRip summary

Track 1 accurately ripped (confidence 1) [8412E7BF]
Track 2 accurately ripped (confidence 1) [2D9B1428]
Track 3 accurately ripped (confidence 1) [10C1BD2D]
Track 4 accurately ripped (confidence 1) [E6052614]
Track 5 accurately ripped (confidence 1) [D610A252]
Track 6 accurately ripped (confidence 1) [A776009F]
Track 7 accurately ripped (confidence 1) [7619B7E2]
Track 8 accurately ripped (confidence 1) [4336F3D1]
Track 9 accurately ripped (confidence 1) [54A0E7AA]
Track 10 accurately ripped (confidence 1) [2C32AFBA]
Track 11 accurately ripped (confidence 1) [61C430D8]

All tracks accurately ripped

End of status report

Analyzed: David Holland / Life Cycle

DR Peak RMS Duration Track

DR11 -2.32 dB -16.81 dB 4:20 01-Inception
DR11 -4.76 dB -18.62 dB 4:28 02-Discovery
DR11 -4.62 dB -19.74 dB 4:30 03-Longing
DR12 -2.91 dB -18.42 dB 3:28 04-Search
DR12 -2.98 dB -18.05 dB 4:43 05-Resolution
DR10 -4.10 dB -16.87 dB 2:25 06-Sonnet
DR13 -3.10 dB -19.88 dB 4:31 07-Rune
DR11 -3.14 dB -16.97 dB 3:07 08-Troubadour Tale
DR13 -2.66 dB -18.97 dB 3:33 09-Grapevine
DR12 -4.66 dB -19.54 dB 2:03 10-Morning song
DR11 -4.51 dB -19.25 dB 4:54 11-Chanson pour la nuit

Number of tracks: 11
Official DR value: DR12

Samplerate: 44100 Hz
Channels: 2
Bits per sample: 16
Bitrate: 617 kbps
Codec: FLAC

Dave Holland - Life Cycle (1983) {ECM 1238}

Dave Holland - Life Cycle (1983) {ECM 1238}

Dave Holland - Life Cycle (1983) {ECM 1238}

Rip by gorall007


DOWNLOAD LINKS
(Premium Recommended)


Links are Interchangeable - No Password - Single Extraction

Direct Download

Tags: Holland

Dave Holland - Life Cycle (1983) {ECM 1238} Download via Hotfile Rapidshare Fileserve Megaupload & FileSonic, Dave Holland - Life Cycle (1983) {ECM 1238} free torrent downloads included crack, serial, keygen.


Attention!Information

Members of Guest cannot leave comments.