Skinny Puppy - Too Dark Park (1990)

Download Now

Skinny Puppy - Too Dark Park (1990)

Skinny Puppy - Too Dark Park (1990)
Electronic | 1cd | EAC Rip | Flac + Cue + Log | covers
Nettwerk, 0 6700 30068 2 8 | rel: 1998 | 305Mb

When Ministry and the Revolting Cocks were offering what could be described as industrial noise for people who weren't industrial fans, Skinny Puppy continued to thrive on the extreme and remained far to the left of rock's center. Employing more bass than Puppy's previous albums, Too Dark Park has a bit of a funk element. But make no mistake: The industrial agitators (who had influenced Nine Inch Nails, Ministry, RevCo, Godflesh, and numerous others) were hardly going after rock's mainstream.
Forceful and consistently abrasive, these twisted and disturbing collages of samples, electronics, distortion, and heavy guitars push the limits of rock and are about as hardcore as it gets. Those who have only a slight interest in industrial would probably be better off starting out with the more accessible Ministry, but this is a CD that the more seasoned industrial aficionados shouldn't miss. ~Allmusic

Track listing
01. Convulsion (3:20)
02. Tormentor (4:33)
03. Spasmolytic (3:54)
04. Rash Reflection (3:29)
05. Natures Revenge (3:57)
06. Shore Lined Poison (4:50)
07. Grave Wisdom (3:45)
08. T.F.W.O. (3:48)
09. Morpheus Laughing (4:00)
10. Reclamation (3:01)
~ (38:36)

Personnel
- Nivek Ogre - vocals
- cEvin Key - drums, synthesizers, 6 and 12-string guitar, objects, treatments, sampler
- Dwayne Goettel - synthesizers, guitar, bass guitar

Exact Audio Copy V1.0 beta 1 from 15. November 2010

EAC extraction logfile from 24. March 2011, 21:58

Skinny Puppy / Too Dark Park

Used drive : LITE-ON DVDRW LH-20A1L Adapter: 4 ID: 0

Read mode : Secure
Utilize accurate stream : Yes
Defeat audio cache : Yes
Make use of C2 pointers : No

Read offset correction

: 6
Overread into Lead-In and Lead-Out : No
Fill up missing offset samples with silence : Yes
Delete leading and trailing silent blocks : No
Null samples used in CRC calculations : Yes
Used interface
: Installed external ASPI interface

Used output format : Internal WAV Routines
Sample format : 44.100 Hz; 16 Bit; Stereo

TOC of the extracted CD Track | Start | Length | Start sector | End sector
--1 | 0:00.32 | 3:20.15 | 32 | 15046 2 | 3:20.47 | 4:33.25 | 15047 | 35546 3 | 7:53.72 | 3:53.68 | 35547 | 53089 4 | 11:47.65 | 3:28.47 | 53090 | 68736 5 | 15:16.37 | 3:57.10 | 68737 | 86521 6 | 19:13.47 | 4:49.40 | 86522 | 108236 7 | 24:03.12 | 3:45.05 | 108237 | 125116 8 | 27:48.17 | 3:47.53 | 125117 | 142194 9 | 31:35.70 | 4:00.07 | 142195 | 160201
10 | 35:36.02 | 3:00.60 | 160202 | 173761

Range status and errors

Selected range Filename Z:\data\mp3\Seeding Archive\Skinny Puppy\1990-Too Dark Park\toodarkpark.wav Peak level 100.0 %
Extraction speed 0.6 X
Range quality 99.9 %
Test CRC 31258508
Copy CRC 31258508
Copy OK

No errors occurred


AccurateRip summary

Track 1 accurately ripped (confidence 6) [518E8062]
Track 2 accurately ripped (confidence 7) [463C1ED5]
Track 3 accurately ripped (confidence 7) [5D98ADDB]
Track 4 accurately ripped (confidence 7) [AEFA52F3]
Track 5 accurately ripped (confidence 7) [903B3BC2]
Track 6 accurately ripped (confidence 7) [D96456DE]
Track 7 accurately ripped (confidence 7) [8318AEDF]
Track 8 accurately ripped (confidence 7) [33F2BF5C]
Track 9 accurately ripped (confidence 7) [814184CD]
Track 10 accurately ripped (confidence 7) [9E85FAE8]

All tracks accurately ripped

End of status report

[CUETools log; Date: 2015.10.27. 21:39:08; Version: 2.1.5]
Pregap length 00:00:32.
[AccurateRip ID: 000ec728-007676f0-87090c0a] found.
Track [ CRC | V2 ] Status
01 [518e8062|4f6094ea] (07+05/42) Accurately ripped
02 [463c1ed5|cc4d8575] (08+05/44) Accurately ripped
03 [5d98addb|3c883153] (08+05/44) Accurately ripped
04 [aefa52f3|764d8b90] (08+05/44) Accurately ripped
05 [903b3bc2|6fb9e611] (08+05/44) Accurately ripped
06 [d96456de|9f7a2356] (08+05/44) Accurately ripped
07 [8318aedf|594d688c] (08+05/44) Accurately ripped
08 [33f2bf5c|e3b5f4cc] (08+05/44) Accurately ripped
09 [814184cd|62339118] (08+05/44) Accurately ripped
10 [9e85fae8|cdcadaee] (08+05/44) Accurately ripped
Offsetted by -1835:
01 [3c9d104a] (03/42) Accurately ripped
02 [299f039e] (03/44) Accurately ripped
03 [49f3a80b] (03/44) Accurately ripped
04 [e70c12f8] (03/44) Accurately ripped
05 [9852ad6a] (03/44) Accurately ripped
06 [a56fa8a1] (03/44) Accurately ripped
07 [04b12544] (03/44) Accurately ripped
08 [704a88e2] (03/44) Accurately ripped
09 [db5e7cdd] (03/44) Accurately ripped
10 [0464643d] (03/44) Accurately ripped
Offsetted by -1171:
01 [152b06ac] (04/42) Accurately ripped
02 [78224c72] (04/44) Accurately ripped
03 [0e5c983f] (04/44) Accurately ripped
04 [1951b1a7] (04/44) Accurately ripped
05 [080002a8] (04/44) Accurately ripped
06 [8c4d4c15] (04/44) Accurately ripped
07 [e042c67f] (04/44) Accurately ripped
08 [ca494c65] (04/44) Accurately ripped
09 [32e0dd02] (04/44) Accurately ripped
10 [45a4b618] (04/44) Accurately ripped
Offsetted by -664:
01 [c4556772] (09/42) Accurately ripped
02 [ae603d4d] (09/44) Accurately ripped
03 [06873f2b] (09/44) Accurately ripped
04 [e45eb960] (09/44) Accurately ripped
05 [86c428aa] (09/44) Accurately ripped
06 [6b57b178] (09/44) Accurately ripped
07 [7740d151] (09/44) Accurately ripped
08 [229c9383] (09/44) Accurately ripped
09 e774dff (09/44) Accurately ripped
10 [848b082a] (09/44) Accurately ripped
Offsetted by 2769:
01 [ec6ae873] (02/42) Accurately ripped
02 [fb85d60a] (03/44) Accurately ripped
03 f71f474 (03/44) Accurately ripped
04 [3d62a45a] (03/44) Accurately ripped
05 [ef1889a2] (03/44) Accurately ripped
06 [e4d49113] (03/44) Accurately ripped
07 [4bca78e2] (03/44) Accurately ripped
08 [9b8c9296] (03/44) Accurately ripped
09 [98f3eb73] (03/44) Accurately ripped
10 [ebee607d] (03/44) Accurately ripped

Track Peak [ CRC32 ] [W/O NULL] [ LOG ]
-- 100,0 [31258508] [67AA20C4] CRC32
01 97,4 [EB656BBA] [D0CC7DCA]
02 94,3 [AF4FE647] [FCF40384]
03 100,0 [AB07CFD9] [4426B1CB]
04 95,1 [DBC92FB0] [7A7810AE]
05 100,0 [C8B0DD17] [1EA38553]
06 96,6 [413DC54B] [D67C076E]
07 97,6 [13C3712D] [DC1FA88A]
08 97,2 [AE660516] [1944D1F3]
09 99,9 [F265E6CC] [CC8A3DB4]
10 91,0 [5B0E0A69] 18EA7EE

Thx to hexonut
password: asd
DOWNLOAD LINKS:
Buy Premium To Support Me & Get Resumable Support & Max Speed


Links are Interchangeable - No Password - Single Extraction

Direct Download

Tags: Skinny

Skinny Puppy - Too Dark Park (1990) Download via Hotfile Rapidshare Fileserve Megaupload & FileSonic, Skinny Puppy - Too Dark Park (1990) free torrent downloads included crack, serial, keygen.


Attention!Information

Members of Guest cannot leave comments.