Bach - Violin Concertos (Elizabeth Wallfisch, Orchestra of the Age of Enlightenment) [1999]

Download Now

Bach - Violin Concertos (Elizabeth Wallfisch, Orchestra of the Age of Enlightenment) [1999]


Bach - Violin Concertos (Elizabeth Wallfisch, Orchestra of the Age of Enlightenment) [1999]
EAC Rip | FLAC, IMG+CUE, LOG | Covers | 2cd, 699.7 MB
Classical | Label: Virgin Classics | Catalog Number: 7243 5 61558 2 4

" Admittedly my early experience of these works was formed by the great Arthur Grumiaux' modern instrument versions, not with the ( to my ears over-romantic ) Solistes Romandes, but an earlier (I think) more incisive performance with the English Chamber Orchestra, very hard to track down, which is wonderful...
By rc_rc (Yorkshire, UK) "

Tracklisting:
Violin Concerto in A minor BWV1041
1. I. (Allegro)
2. II. Andante
3. III. Allegro assai
Violin Concerto in E major BWV1042
4. I. Allegro
5. II. Adagio
6. III. Allegro assai
Double Violin Concerto in D minor BWV1043
7. I. Vivace
8. II. Largo ma non tanto
9. III. Allegro
Concerto in D major for 3 violins (reconstructed from Concerto for 3 harpsichords in C) BWV 1064
10. I. Allegro
11. II. Adagio
12. III. Allegro
CD2
Violin Concerto in G Minor (reconstructed from Harpsichord Concerto in F) BWV1056
1. I. [-]
2. II. Largo
3. III. Presto
Concerto for Oboe, Violin and Strings in C minor (reconstructed from Double Harpsichord Concerto in C minor) BWV1060
4. I. Allegro
5. II. Adagio
6. III. Allegro
Violin Concerto in D minor (reconstructed from Harpsichord Concerto in D minor) BWV1052
7. I. [-]
8. II. Adagio
9. III. Allegro
Concerto for Flute, Violin and Harpsichord in A minor BWV1044
10. I. Allegro
11. II. Adagio, ma non troppo, e dolce
12. III. Allabreve

Exact Audio Copy V1.0 beta 1 from 15. November 2010

EAC extraction logfile from 21. September 2011, 17:25

Elizabeth Wallfisch - Orchestra of the Age of Enlightenment / Bach - Violin Concertos CD1

Used drive : PIONEER DVD-RW DVR-218L Adapter: 1 ID: 0

Read mode : Secure
Utilize accurate stream : Yes
Defeat audio cache : Yes
Make use of C2 pointers : No

Read offset correction

: 6
Overread into Lead-In and Lead-Out : No
Fill up missing offset samples with silence : Yes
Delete leading and trailing silent blocks : No
Null samples used in CRC calculations : Yes
Used interface
: Native Win32 interface for Win NT & 2000

Used output format : User Defined Encoder
Selected bitrate : 192 kBit/s
Quality : High
Add ID3 tag : No
Command line compressor : C:\Program Files\Exact Audio Copy\Flac\flac.exe
Additional command line options : -T "DATE=%y" -T "GENRE=%m" -8 -V %s

TOC of the extracted CD Track | Start | Length | Start sector | End sector
--1 | 0:00.00 | 4:01.52 | 0 | 18126 2 | 4:01.52 | 5:47.00 | 18127 | 44151 3 | 9:48.52 | 3:42.00 | 44152 | 60801 4 | 13:30.52 | 7:59.03 | 60802 | 96729 5 | 21:29.55 | 5:57.72 | 96730 | 123576 6 | 27:27.52 | 2:55.03 | 123577 | 136704 7 | 30:22.55 | 3:49.30 | 136705 | 153909 8 | 34:12.10 | 6:24.30 | 153910 | 182739 9 | 40:36.40 | 4:55.15 | 182740 | 204879
10 | 45:31.55 | 6:41.20 | 204880 | 234974
11 | 52:13.00 | 5:41.65 | 234975 | 260614
12 | 57:54.65 | 4:49.60 | 260615 | 282349

Range status and errors

Selected range Filename C:\Bach - Violin Concertos CD1.wav Peak level 95.5 %
Extraction speed 0.1 X
Range quality 100.0 %
Test CRC DEECF3C6
Copy CRC DEECF3C6
Copy OK

No errors occurred


AccurateRip summary

Track 1 accurately ripped (confidence 9) [944B8254]
Track 2 accurately ripped (confidence 10) [13BF7D50]
Track 3 accurately ripped (confidence 10) [15E6185E]
Track 4 accurately ripped (confidence 10) [459B035F]
Track 5 accurately ripped (confidence 10) [0DE71563]
Track 6 accurately ripped (confidence 10) [75BBA7B9]
Track 7 accurately ripped (confidence 10) [19B87CEC]
Track 8 accurately ripped (confidence 10) [61509AC7]
Track 9 accurately ripped (confidence 10) [41675A77]
Track 10 accurately ripped (confidence 9) [601F9E59]
Track 11 accurately ripped (confidence 9) [CDE21752]
Track 12 accurately ripped (confidence 9) [6AF747B8]

All tracks accurately ripped

End of status report

==== Log checksum 8FD73C2A2A99EDB167A0B039F991C78902F32193908CF4157EE35256437CD854 ====



Exact Audio Copy V1.0 beta 1 from 15. November 2010

EAC extraction logfile from 21. September 2011, 19:06

Elizabeth Wallfisch - Orchestra of the Age of Enlightenment / Bach - Violin Concertos CD2

Used drive : PIONEER DVD-RW DVR-218L Adapter: 1 ID: 0

Read mode : Secure
Utilize accurate stream : Yes
Defeat audio cache : Yes
Make use of C2 pointers : No

Read offset correction

: 6
Overread into Lead-In and Lead-Out : No
Fill up missing offset samples with silence : Yes
Delete leading and trailing silent blocks : No
Null samples used in CRC calculations : Yes
Used interface
: Native Win32 interface for Win NT & 2000

Used output format : User Defined Encoder
Selected bitrate : 192 kBit/s
Quality : High
Add ID3 tag : No
Command line compressor : C:\Program Files\Exact Audio Copy\Flac\flac.exe
Additional command line options : -T "DATE=%y" -T "GENRE=%m" -8 -V %s

TOC of the extracted CD Track | Start | Length | Start sector | End sector
--1 | 0:00.33 | 3:47.70 | 33 | 17127 2 | 3:48.28 | 2:38.50 | 17128 | 29027 3 | 6:27.03 | 3:18.01 | 29028 | 43878 4 | 9:45.04 | 4:52.46 | 43879 | 65824 5 | 14:37.50 | 4:41.18 | 65825 | 86917 6 | 19:18.68 | 3:45.20 | 86918 | 103812 7 | 23:04.13 | 8:08.52 | 103813 | 140464 8 | 31:12.65 | 6:34.30 | 140465 | 170044 9 | 37:47.20 | 8:10.10 | 170045 | 206804
10 | 45:57.30 | 8:24.68 | 206805 | 244672
11 | 54:22.23 | 5:55.62 | 244673 | 271359
12 | 60:18.10 | 7:09.22 | 271360 | 303556

Range status and errors

Selected range Filename C:\Bach - Violin Concertos CD2.wav Peak level 97.9 %
Extraction speed 0.1 X
Range quality 100.0 %
Test CRC 7B14ECC6
Copy CRC 7B14ECC6
Copy OK

No errors occurred


AccurateRip summary

Track 1 accurately ripped (confidence 8) [470F5B25]
Track 2 accurately ripped (confidence 8) [D1662434]
Track 3 accurately ripped (confidence 8) [EE8574E1]
Track 4 accurately ripped (confidence 9) [56912126]
Track 5 accurately ripped (confidence 9) [EAC82C1F]
Track 6 accurately ripped (confidence 9) [568C8824]
Track 7 accurately ripped (confidence 8) [C5660341]
Track 8 accurately ripped (confidence 8) [4598B7F6]
Track 9 accurately ripped (confidence 8) [A2330866]
Track 10 accurately ripped (confidence 8) [16E9FAFA]
Track 11 accurately ripped (confidence 8) [E6CB6C8C]
Track 12 accurately ripped (confidence 8) [D275CE9D]

All tracks accurately ripped

End of status report

==== Log checksum 5CB6F6221EC875E4F2AE187319823DFF4D58867BCDBD2E37DBC930E3CC669F4E ====


Performer:
Orchestra of the Age of Enlightenment
Alison Bury - violin (BWV 1043)
Pavlo Beznosiuk - violin (BWV 1064)
Catherine Mackintosh - violin (BWV 1064)
Anthony Robson - oboe (BWV 1060)
Lisa Beznosiuk -flute (BWV 1044)
Paul Nicholson - harpsichord (BWV 1044)
Elizabeth Wallfisch - violin & direction
DOWNLOAD LINKS:
(Premium Recommended)


All above links are interchangable. No password

Direct Download

Tags: Violin, Concertos, Elizabeth, Wallfisch, Orchestra, Enlightenment

Bach - Violin Concertos (Elizabeth Wallfisch, Orchestra of the Age of Enlightenment) [1999] Download via Hotfile Rapidshare Fileserve Megaupload & FileSonic, Bach - Violin Concertos (Elizabeth Wallfisch, Orchestra of the Age of Enlightenment) [1999] free torrent downloads included crack, serial, keygen.


Attention!Information

Members of Guest cannot leave comments.