Dudley Taft - Screaming In The Wind (2014)

Download Now

Dudley Taft - Screaming In The Wind (2014)

Dudley Taft - Screaming In The Wind (2014)
EAC Rip | FLAC (Img) + Cue + Log ~ 407 Mb | MP3 CBR320 ~ 124 Mb
Scans (JPG, 600 dpi) ~ 96 Mb | RAR 5% Recovery
Blues Rock, Southern Rock | American Blues Artist Group/Taft Enterprises #888174619088

"Fans of blues rock guitar and those of Dudley Taft and his chosen career path will love this album. Using the six string as his flag, Taft plants it and, once again, lays claim to his little part of the blues rock world. Nasty, filthy guitar work and superior tone; just what you'd expect from the bearded guitar wailer..."

His first release, Left For Dead (2010) had a desert southwest feel to the music and story line with just a little Seattle grunge, while Deep Deep Blue (2013) saw him start to explore more of the rock side of the blues. Screaming In The Wind is no exception to this progression for the Cincinnati-based guitarist. Dudley spent twenty years in Seattle and was in the thick of the grunge movement, so there is a touch of eclectic influence in his playing.

The layered guitars on track three, "Red Line" are brilliantly reminiscent of Thin Lizzy. In fact, if ZZ Top and Thin Lizzy had a baby, this song would need to go in for blood test, and perhaps an appearance on the Maury Show would be in order. Dudley also unleashes some Texas shred on this one and John Kessler is delivering a knock out blow with a fat lower end keeping perfect tempo with drummer, Jason Patterson. They are both locked in throughout the entire album. Track six, "I Keep My Eyes On You" has a funky guitar riff straight out of the 70's that will make the listener think of The Ohio Players. Track five, "3DHD" shows how talented Dudley is at crafting a rock & roll - if not a pop melody. It has plenty of guitar, but parts of the song have an almost Badfinger vibe. Tracks ten & twelve seem to be the songs that are the most connected to the previous two albums, although the last song leaves the desert and heads into some Pink Floyd territory. Left For Dead (Part 3)?

Also of note is the title track. It started out as a one minute long custom instrumental riff Taft did for the American Blues Scene Magazine fundraising video at the end of 2012. "They told me it should be a song," he recalls, "and I think it may have turned out to be one of the strongest on the album. Tom Hambridge and I worked hard to find the key imagery in the lyrics to tell the story." Track seven feels like the most straight up blues song here. That riff is still catchy as hell.

The album is set for a May 20 release on Taft's own American Blues Artist Group label. Former Stevie Ray Vaughan keyboard player Reese Wynans lends his mastery of the keys to Screaming In The Wind and Tom Hambridge (Buddy Guy, Susan Tedeschi, George Thorogood, Johnny Winter) produced the album and played drums on a few tracks. Screaming In The Wind was recorded at The Switchyard and Rendering Plant in Nashville, as well as Taft's new Muchmore Studio in Cincinnati.

Other special guests on Screaming in the Wind include the acclaimed McCrary sisters, who bring their smooth gospel harmonies to the song "Barrio," a tale of self induced misfortune, while the Muscle Shoals Horn Section shines on "Pack It Up."

Fans of blues-rock, the electric guitar will be more than satisfied by this release and should be once again blown away by Taft's tone. We highly recommend picking this one up and playing it load and often.
~ americanbluesscene.com

Dudley Taft - Screaming In The Wind (2014)

Official Website | Wiki | Discogs | All Music
***************

Dudley Taft - Screaming In The Wind (2014)

Track List:

01. Hard Time Killing Floor Blues [02:48]
02. Pack It Up [04:23]
03. Red Line [04:17]
04. Screaming In The Wind [04:18]
05. 3DHD [04:38]
06. I Kepp My Eyes On You [05:13]
07. The Reason Why [04:51]
08. Rise Above It [03:53]
09. Barrio [03:46]
10. Sleeping In The Sunlight [04:05]
11. Tears In Rain [04:14]
12. Say You Will [05:16]

Exact Audio Copy V1.0 beta 3 from 29. August 2011

Отчёт EAC об извлечении, выполненном 9. августа 2014, 8:25

Dudley Taft / Screaming In The Wind

Дисковод: PLEXTOR DVDR PX-880SA Adapter: 1 ID: 0

Режим чтения : Достоверность
Использование точного потока : Да
Отключение кэша аудио : Да
Использование указателей C2 : Нет

Коррекция смещения при чтении : 6
Способность читать области Lead-in и Lead-out : Нет
Заполнение пропущенных сэмплов тишиной : Да
Удаление блоков с тишиной в начале и конце : Нет
При вычислениях CRC использовались нулевые сэмплы : Да
Интерфейс : Установленный внешний ASPI-интерфейс

Выходной формат : Пользовательский кодировщик
Выбранный битрейт : 1024 kBit/s
Качество : Высокий
Добавление ID3-тега : Нет
Утилита сжатия : C:\Program Files\Exact Audio Copy\FLAC\FLAC.EXE
Дополнительные параметры : -10 -V -T "ARTIST=%artist%" -T "ALBUM=%albumtitle%" -T "DATE=%year%" -T "GENRE=%genre%" -T "COMMENT=ripped by izia1956" %source%

TOC извлечённого CD Трек | Старт | Длительность | Начальный сектор | Конечный сектор

1 | 0:00.00 | 2:47.02 | 0 | 12526
2 | 2:47.02 | 4:22.71 | 12527 | 32247
3 | 7:09.73 | 4:16.17 | 32248 | 51464
4 | 11:26.15 | 4:17.40 | 51465 | 70779
5 | 15:43.55 | 4:37.16 | 70780 | 91570
6 | 20:20.71 | 5:12.48 | 91571 | 115018
7 | 25:33.44 | 4:50.53 | 115019 | 136821
8 | 30:24.22 | 3:53.00 | 136822 | 154296
9 | 34:17.22 | 3:45.65 | 154297 | 171236
10 | 38:03.12 | 4:04.71 | 171237 | 189607
11 | 42:08.08 | 4:13.07 | 189608 | 208589
12 | 46:21.15 | 5:15.50 | 208590 | 232264

Характеристики диапазона извлечения и сообщения об ошибках

Выбранный диапазон Имя файла D:\BitComet\Dudley Taft\2014 - Screaming In The Wind\Dudley Taft - Screaming In The Wind.wav Пиковый уровень 100.0 %
Скорость извлечения 4.5 X
Качество диапазона 99.9 %
CRC теста BC181502
CRC копии BC181502
Копирование... OK

Ошибок не произошло


AccurateRip: сводка

Трек 1 : извлечено точно (доверие 1) [9ABF5FB6] (AR v2)
Трек 2 : извлечено точно (доверие 1) [5C6C4087] (AR v2)
Трек 3 : извлечено точно (доверие 1) [D816C105] (AR v2)
Трек 4 : извлечено точно (доверие 1) [E94FFC83] (AR v2)
Трек 5 : извлечено точно (доверие 1) [CD4A80B8] (AR v2)
Трек 6 : извлечено точно (доверие 1) [0BD9132E] (AR v2)
Трек 7 : извлечено точно (доверие 1) [49B38511] (AR v2)
Трек 8 : извлечено точно (доверие 1) [F0B0206C] (AR v2)
Трек 9 : извлечено точно (доверие 1) [9B54CC52] (AR v2)
Трек 10 : извлечено точно (доверие 1) [05B0A8B8] (AR v2)
Трек 11 : извлечено точно (доверие 1) BDAEA81 (AR v2)
Трек 12 : извлечено точно (доверие 1) [49E5D898] (AR v2)

Все треки извлечены точно

Конец отчёта

==== Контрольная сумма отчёта 985E747A6CBC498AC66A585E535CE1671B3225927455C68B8FFD05F1C7B6AB54 ====

foobar2000 1.2.6 / Dynamic Range Meter 1.1.1
log date: 2015-10-27 19:59:49

Analyzed: Dudley Taft / Screaming In The Wind

DR Peak RMS Duration Track

DR7 0.00 dB -8.13 dB 2:47 01-Hard Time Killing Floor Blues
DR7 0.00 dB -7.77 dB 4:23 02-Pack It Up
DR7 0.00 dB -7.75 dB 4:16 03-Red Line
DR7 0.00 dB -8.75 dB 4:18 04-Screaming In The Wind
DR7 0.00 dB -8.52 dB 4:37 05-3Dhd
DR7 0.00 dB -8.05 dB 5:13 06-I Kepp My Eyes On You
DR8 0.00 dB -8.52 dB 4:51 07-The Reason Why
DR7 0.00 dB -8.09 dB 3:53 08-Rise Above It
DR9 0.00 dB -10.47 dB 3:46 09-Barrio
DR7 0.00 dB -8.24 dB 4:05 10-Sleeping In The Sunlight
DR7 0.00 dB -8.37 dB 4:13 11-Tears In Rain
DR7 0.00 dB -8.12 dB 5:16 12-Say You Will

Number of tracks: 12
Official DR value: DR7

Samplerate: 44100 Hz
Channels: 2
Bits per sample: 16
Bitrate: 1050 kbps
Codec: FLAC

[CUETools log; Date: 27.10.2015 19:59:43; Version: 2.1.5]
[CTDB TOCID: b0x5cHme2.XqfeKqd2xuwR.udls-] found.
Track | CTDB Status
1 | (5/5) Accurately ripped
2 | (5/5) Accurately ripped
3 | (5/5) Accurately ripped
4 | (5/5) Accurately ripped
5 | (5/5) Accurately ripped
6 | (5/5) Accurately ripped
7 | (5/5) Accurately ripped
8 | (5/5) Accurately ripped
9 | (5/5) Accurately ripped
10 | (5/5) Accurately ripped
11 | (5/5) Accurately ripped
12 | (5/5) Accurately ripped
[AccurateRip ID: 0016603d-00d32e4e-a70c180c] found.
Track [ CRC | V2 ] Status
01 [14432e75|9abf5fb6] (0+4/4) Accurately ripped
02 [d89ef251|5c6c4087] (0+4/4) Accurately ripped
03 [cc6108f9|d816c105] (0+4/4) Accurately ripped
04 [a862f7aa|e94ffc83] (0+4/4) Accurately ripped
05 [89ed6fa8|cd4a80b8] (0+4/4) Accurately ripped
06 [cc921856|0bd9132e] (0+4/4) Accurately ripped
07 [20b67947|49b38511] (0+4/4) Accurately ripped
08 [3c7b2e11|f0b0206c] (0+4/4) Accurately ripped
09 [67ce9b55|9b54cc52] (0+4/4) Accurately ripped
10 [f88b20c9|05b0a8b8] (0+4/4) Accurately ripped
11 [389b9751|bbdaea81] (0+4/4) Accurately ripped
12 [a3ca9125|49e5d898] (0+4/4) Accurately ripped

Track Peak [ CRC32 ] [W/O NULL] [ LOG ]
-- 100,0 C181502 [05CA1AD0] CRC32
01 100,0 82A7998 [F514C7D9]
02 100,0 [A80F862B] [6E744515]
03 100,0 [93F0DA1F] [CFBBA7C0]
04 100,0 [9F691132] [67DB20A7]
05 100,0 [703151AF] [91937406]
06 100,0 [38A9B9DF] [C3D4A425]
07 100,0 [D4FDE307] B9BA313
08 100,0 [854CA8FC] [8D7FDBB6]
09 100,0 [E99C3F5C] [550D5C5E]
10 100,0 [55E737CA] [D3494D00]
11 100,0 [AE7E441A] [0AF04161]
12 100,0 [790BD0E2] [9C1AF797]

Dudley Taft - Screaming In The Wind (2014)

DOWNLOAD LINKS:
Buy Premium To Support Me & Get Resumable Support & Max Speed


Links are Interchangeable - No Password - Single Extraction

Direct Download

Tags: Dudley, Screaming

Dudley Taft - Screaming In The Wind (2014) Download via Hotfile Rapidshare Fileserve Megaupload & FileSonic, Dudley Taft - Screaming In The Wind (2014) free torrent downloads included crack, serial, keygen.


Attention!Information

Members of Guest cannot leave comments.