Oregon - Violin (1978) {Vanguard}

Download Now

Oregon - Violin (1978) {Vanguard}

Oregon - Violin (1978) {Vanguard}
EAC 0.99pb1 | FLAC tracks level 8 | Cue+Log+M3U | Scans 300dpi | 189MB + 5% Recovery
Genre: Fusion, Ethnic Fusion

"Fine late '70s material from the acoustic band Oregon. Despite the title, it's not violin-dominated material, but their standard blend of Asian, European, African, and American elements and influences."

Track List
01. Violin 15:34
02. Serenade 2:12
03. Raven's Wood 9:37
04. Flagolet 5:16
05. Friend Of The Family 4:40

Zbigniew Seifert - violin
Paul McCandless - oboe, bass clarinet
Glen Moore - bass
Ralph Towner - 12-string and classical guitars, piano
Collin Walcott - tabla, percussion, piano

Produced by Oregon

Exact Audio Copy V0.99 prebeta 1 from 25. May 2007

Отчёт EAC об извлечении, выполненном 27. ноября 2007, 1:25

Oregon / Violin

Дисковод: _NEC DVD_RW ND-4570A Adapter: 1 ID: 1

Режим чтения : Достоверность
Использование точного потока : Да
Отключение кэша аудио : Да
Использование указателей C2 : Нет

Коррекция смещения при чтении : 48
Способность читать области Lead-in и Lead-out : Нет
Заполнение пропущенных сэмплов тишиной : Да
Удаление блоков с тишиной в начале и конце : Нет
Интерфейс
: Установленный внешний ASPI-интерфейс
Обработка зазоров : Не обнаружено, добавлено к предыдущему треку

Выходной формат : Пользовательский кодировщик
Выбранный битрейт : 1024 kBit/s
Качество : Высокий
Добавление ID3-тэга : Да
Утилита сжатия : C:\Program Files\Exact Audio Copy\flac-1.2.0-win\bin\flac.exe
Дополнительные параметры : -8 -V -T "artist=%a" -T "title=%t" -T "album=%g" -T "date=%y" -T "tracknumber=%n" -T "genre=%m" -T "comment=Innochka" %s

TOC извлечённого CD Трек | Старт | Длительность | Начальный сектор | Конечный сектор

1 | 0:02.00 | 15:36.57 | 150 | 70406
2 | 15:38.57 | 2:13.28 | 70407 | 80409
3 | 17:52.10 | 9:39.52 | 80410 | 123886
4 | 27:31.62 | 5:17.25 | 123887 | 147686
5 | 32:49.12 | 4:39.52 | 147687 | 168663

Трек 1 Имя файла G:\Imidg\Новая папка\+Oregon - Violin\01 - Violin.wav Пиковый уровень 99.9 %
Качество трека 99.9 %
CRC копии 76C4F081
Копирование... OK

Трек 2 Имя файла G:\Imidg\Новая папка\+Oregon - Violin\02 - Serenade.wav Пиковый уровень 43.7 %
Качество трека 100.0 %
CRC копии 559B272C
Копирование... OK

Трек 3 Имя файла G:\Imidg\Новая папка\+Oregon - Violin\03 - Raven's Wood.wav Пиковый уровень 97.0 %
Качество трека 100.0 %
CRC копии B04CA236
Копирование... OK

Трек 4 Имя файла G:\Imidg\Новая папка\+Oregon - Violin\04 - Flagolet.wav Пиковый уровень 37.9 %
Качество трека 100.0 %
CRC копии AAAD167D
Копирование... OK

Трек 5 Имя файла G:\Imidg\Новая папка\+Oregon - Violin\05 - Friend Of The Family.wav Пиковый уровень 99.9 %
Качество трека 100.0 %
CRC копии FEB829C9
Копирование... OK

Ошибок не произошло

Конец отчёта

Analyzed: Oregon / Violin

DR Peak RMS Duration Track

DR15 0.00 dB -20.38 dB 15:37 01-Violin
DR12 -7.18 dB -25.22 dB 2:13 02-Serenade
DR14 -0.26 dB -17.71 dB 9:40 03-Raven's Wood
DR13 -8.42 dB -26.73 dB 5:17 04-Flagolet
DR14 0.00 dB -17.71 dB 4:40 05-Friend Of The Family

Number of tracks: 5
Official DR value: DR14

Samplerate: 44100 Hz
Channels: 2
Bits per sample: 16
Bitrate: 805 kbps
Codec: FLAC

Oregon - Violin (1978) {Vanguard}

Oregon - Violin (1978) {Vanguard}

Rip by Inochka


DOWNLOAD LINKS:
Buy Premium To Support Me & Get Resumable Support & Max Speed


Links are Interchangeable - No Password - Single Extraction

Direct Download

Tags: Oregon, Violin, Vanguard

Oregon - Violin (1978) {Vanguard} Download via Hotfile Rapidshare Fileserve Megaupload & FileSonic, Oregon - Violin (1978) {Vanguard} free torrent downloads included crack, serial, keygen.


Attention!Information

Members of Guest cannot leave comments.