Tina Turner - Private Dancer: 30th Anniversary Edition (2015)

Download Now

Tina Turner - Private Dancer: 30th Anniversary Edition (2015)

Tina Turner - Private Dancer: 30th Anniversary Edition (2015)
2CD | EAC Rip | FLAC (Img) + Cue + Log ~ 818 Mb | Scans (JPG, 600 dpi) ~ 67 Mb | RAR 5% Recovery
Pop, Rock, New Wave, R&B | Parlaphone Records #0825646170425

"Private Dancer is the fifth solo studio album by Tina Turner, released on Capitol Records in May 1984. Remastered in 2015, and reissued with 15 bonus tracks of B-sides, remixes, live recordings and rarities, including the duet with Bryan Adams "It's Only Love" and the duet with David Bowie "Tonight", also including her two songs of the "Mad Max Beyond Thunderdome" soundtrack..."

Track List CD1:

01. I Might Have Been Queen [04:12]
02. What's Love Got To Do With It [03:51]
03. Show Some Respect [03:20]
04. I Can't Stand The Rain [03:44]
05. Private Dancer [07:15]
06. Let's Stay Together [05:19]
07. Better Be Good To Me [05:14]
08. Steel Claw [03:50]
09. Help [04:32]
10. 1984 [03:12]

Exact Audio Copy V1.0 beta 3 from 29. August 2011

EAC extraction logfile from 28. October 2015, 12:55

Tina Turner / Private Dancer

Used drive : PIONEER BD-RW BDR-TD03 Adapter: 0 ID: 1

Read mode : Secure
Utilize accurate stream : Yes
Defeat audio cache : Yes
Make use of C2 pointers : No

Read offset correction

: 667
Overread into Lead-In and Lead-Out : No
Fill up missing offset samples with silence : Yes
Delete leading and trailing silent blocks : No
Null samples used in CRC calculations : Yes
Used interface
: Native Win32 interface for Win NT & 2000

Used output format : User Defined Encoder
Selected bitrate : 768 kBit/s
Quality : High
Add ID3 tag : No
Command line compressor : C:\Program Files (x86)\Exact Audio Copy\FLAC\FLAC.EXE
Additional command line options : -6 -V -T "ARTIST=%artist%" -T "TITLE=%title%" -T "ALBUM=%albumtitle%" -T "DATE=%year%" -T "TRACKNUMBER=%tracknr%" -T "GENRE=%genre%" -T "COMMENT=%comment%" -T "BAND=%albuminterpret%" -T "ALBUMARTIST=%albuminterpret%" -T "COMPOSER=%composer%" %haslyrics%--tag-from-file=LYRICS="%lyricsfile%"%haslyrics% -T "DISCNUMBER=%cdnumber%" -T "TOTALDISCS=%totalcds%" -T "TOTALTRACKS=%numtracks%" %hascover%--picture="%coverfile%"%hascover% %source% -o %dest%

TOC of the extracted CD Track | Start | Length | Start sector | End sector
--1 | 0:00.00 | 4:11.18 | 0 | 18842 2 | 4:11.18 | 3:50.18 | 18843 | 36110 3 | 8:01.36 | 3:19.16 | 36111 | 51051 4 | 11:20.52 | 3:43.13 | 51052 | 67789 5 | 15:03.65 | 7:14.69 | 67790 | 100408 6 | 22:18.59 | 5:18.05 | 100409 | 124263 7 | 27:36.64 | 5:13.38 | 124264 | 147776 8 | 32:50.27 | 3:49.71 | 147777 | 165022 9 | 36:40.23 | 4:31.50 | 165023 | 185397
10 | 41:11.73 | 3:11.74 | 185398 | 199796

Range status and errors

Selected range Filename C:\Users\Deris\Desktop\kpnemo.eu\TiTu30\cd1\Tina Turner - Private Dancer.wav Peak level 98.0 %
Extraction speed 4.4 X
Range quality 99.9 %
Test CRC 6FCB2BA6
Copy CRC 6FCB2BA6
Copy OK

No errors occurred


AccurateRip summary

Track 1 accurately ripped (confidence 5) [D51384E8] (AR v2)
Track 2 accurately ripped (confidence 5) F2124DC (AR v2)
Track 3 accurately ripped (confidence 5) [6514633D] (AR v2)
Track 4 accurately ripped (confidence 5) [F8256915] (AR v2)
Track 5 accurately ripped (confidence 5) [1617355D] (AR v2)
Track 6 accurately ripped (confidence 5) [33A52C71] (AR v2)
Track 7 accurately ripped (confidence 4) [348963E5] (AR v2)
Track 8 accurately ripped (confidence 5) [DA90CFCD] (AR v2)
Track 9 accurately ripped (confidence 5) [33774C8A] (AR v2)
Track 10 accurately ripped (confidence 5) [E53ABF6F] (AR v2)

All tracks accurately ripped

End of status report

- CUETools DB Plugin V2.1.3

[CTDB TOCID: wCFzAj0YlA_y7SMhJ1a7hn8M0FY-] found, Submit result: wCFzAj0YlA_y7SMhJ1a7hn8M0FY- has been confirmed
[0c4803ec] (25/26) Accurately ripped
[2ea6d83e] (01/26) No match

==== Log checksum 7A860789D760E7CBDA4CB42DC343252F2E04028E280356DFDD53754DAEC736AD ====

foobar2000 1.2.6 / Dynamic Range Meter 1.1.1
log date: 2015-11-02 06:49:03

Analyzed: Tina Turner / Private Dancer

DR Peak RMS Duration Track

DR8 -0.17 dB -9.85 dB 4:11 01-I Might Have Been Queen
DR11 -0.17 dB -12.80 dB 3:50 02-What's Love Got To Do With It
DR8 -0.17 dB -9.69 dB 3:19 03-Show Some Respect
DR8 -0.17 dB -10.44 dB 3:43 04-I Can't Stand The Rain
DR9 -0.17 dB -12.12 dB 7:15 05-Private Dancer
DR7 -0.17 dB -9.47 dB 5:18 06-Let's Stay Together
DR8 -0.17 dB -10.66 dB 5:14 07-Better Be Good To Me
DR7 -0.17 dB -8.32 dB 3:50 08-Steel Claw
DR10 -0.17 dB -12.71 dB 4:32 09-Help
DR8 -0.17 dB -11.12 dB 3:12 10-1984

Number of tracks: 10
Official DR value: DR8

Samplerate: 44100 Hz
Channels: 2
Bits per sample: 16
Bitrate: 972 kbps
Codec: FLAC

[CUETools log; Date: 02.11.2015 6:49:02; Version: 2.1.5]
[CTDB TOCID: wCFzAj0YlA_y7SMhJ1a7hn8M0FY-] found.
Track | CTDB Status
1 | (27/27) Accurately ripped
2 | (27/27) Accurately ripped
3 | (27/27) Accurately ripped
4 | (27/27) Accurately ripped
5 | (27/27) Accurately ripped
6 | (27/27) Accurately ripped
7 | (26/27) Accurately ripped
8 | (27/27) Accurately ripped
9 | (27/27) Accurately ripped
10 | (27/27) Accurately ripped
[AccurateRip ID: 0010bb10-0087820a-7e0a670a] found.
Track [ CRC | V2 ] Status
01 [c8c44951|d51384e8] (0+5/5) Accurately ripped
02 [1ca0f112|bf2124dc] (0+5/5) Accurately ripped
03 [5843c54b|6514633d] (0+5/5) Accurately ripped
04 [e0893db3|f8256915] (0+5/5) Accurately ripped
05 [83a7b615|1617355d] (0+5/5) Accurately ripped
06 [52a461eb|33a52c71] (0+5/5) Accurately ripped
07 [00430d62|348963e5] (0+4/4) Accurately ripped
08 [3c85be62|da90cfcd] (0+5/5) Accurately ripped
09 [3948d77e|33774c8a] (0+5/5) Accurately ripped
10 [70b7b91a|e53abf6f] (0+5/5) Accurately ripped
Offsetted by 6:
01 [6952fd01] (0/5) No match (V2 was not tested)
02 [c28281bc] (0/5) No match (V2 was not tested)
03 40184c7 (0/5) No match (V2 was not tested)
04 [77c6e724] (0/5) No match (V2 was not tested)
05 [eb903d0c] (0/5) No match (V2 was not tested)
06 [de92b9c3] (0/5) No match (V2 was not tested)
07 [79b66430] (0/4) No match (V2 was not tested)
08 [345449aa] (0/5) No match (V2 was not tested)
09 f18f126 (0/5) No match (V2 was not tested)
10 [942166ee] (0/5) No match (V2 was not tested)

Track Peak [ CRC32 ] [W/O NULL] [ LOG ]
-- 98,0 [6FCB2BA6] [7A94FDBA] CRC32
01 98,0 [A8CF33E4] [C6BC31D5]
02 98,0 [9109F49A] [3550191D]
03 98,0 [CC359818] [61A3DAD0]
04 98,0 DD2C257 [80BF59B7]
05 98,0 [18383685] [4FE58BFA]
06 98,0 [AAC37C4C] [0544C8CE]
07 98,0 [32F023E3] [405CCDAE]
08 98,0 [7610CBE0] [01D96F9E]
09 98,0 [AB6F05EC] F449B28
10 98,0 [9CF3E4E3] [86F384AC]

Tina Turner - Private Dancer: 30th Anniversary Edition (2015)

Track List CD2:

01. Ball Of Confusion (That's What The World Is Today) [With BEF] [04:13]
02. I Wrote A Letter [03:27]
03. Rock 'n Roll Widow [04:43]
04. Don't Rush The Good Things [03:48]
05. When I Was Young [03:11]
06. Keep Your Hands Off My Baby [03:31]
07. Tonight (With David Bowie) [04:07]
08. Let's Pretend We're Married (Live) [04:14]
09. What's Love Got To Do With It (Extended 12-Inch Remix) [05:45]
10. Better Be Good To Me (Extended 12-Inch Remix) [07:05]
11. I Can't Stand The Rain (Extended 12-Inch Remix) [05:44]
12. Show Some Respect (Extended Mix) [05:45]
13. We Don't Need Another Hero (Thunderdome) [04:17]
14. One Of The Living [04:13]
15. It's Only Love (With Bryan Adams) [03:18]

Exact Audio Copy V1.0 beta 3 from 29. August 2011

EAC extraction logfile from 28. October 2015, 14:10

Tina Turner / Private Dancer - 30th Anniversary Edition - Disc 2

Used drive : PIONEER BD-RW BDR-TD03 Adapter: 0 ID: 1

Read mode : Secure
Utilize accurate stream : Yes
Defeat audio cache : Yes
Make use of C2 pointers : No

Read offset correction

: 667
Overread into Lead-In and Lead-Out : No
Fill up missing offset samples with silence : Yes
Delete leading and trailing silent blocks : No
Null samples used in CRC calculations : Yes
Used interface
: Native Win32 interface for Win NT & 2000

Used output format : User Defined Encoder
Selected bitrate : 768 kBit/s
Quality : High
Add ID3 tag : No
Command line compressor : C:\Program Files (x86)\Exact Audio Copy\FLAC\FLAC.EXE
Additional command line options : -6 -V -T "ARTIST=%artist%" -T "TITLE=%title%" -T "ALBUM=%albumtitle%" -T "DATE=%year%" -T "TRACKNUMBER=%tracknr%" -T "GENRE=%genre%" -T "COMMENT=%comment%" -T "BAND=%albuminterpret%" -T "ALBUMARTIST=%albuminterpret%" -T "COMPOSER=%composer%" %haslyrics%--tag-from-file=LYRICS="%lyricsfile%"%haslyrics% -T "DISCNUMBER=%cdnumber%" -T "TOTALDISCS=%totalcds%" -T "TOTALTRACKS=%numtracks%" %hascover%--picture="%coverfile%"%hascover% %source% -o %dest%

TOC of the extracted CD Track | Start | Length | Start sector | End sector
--1 | 0:00.00 | 4:13.00 | 0 | 18974 2 | 4:13.00 | 3:26.70 | 18975 | 34494 3 | 7:39.70 | 4:42.68 | 34495 | 55712 4 | 12:22.63 | 3:47.12 | 55713 | 72749 5 | 16:10.00 | 3:10.20 | 72750 | 87019 6 | 19:20.20 | 3:30.35 | 87020 | 102804 7 | 22:50.55 | 4:06.26 | 102805 | 121280 8 | 26:57.06 | 4:13.12 | 121281 | 140267 9 | 31:10.18 | 5:45.00 | 140268 | 166142
10 | 36:55.18 | 7:04.17 | 166143 | 197959
11 | 43:59.35 | 5:43.17 | 197960 | 223701
12 | 49:42.52 | 5:44.66 | 223702 | 249567
13 | 55:27.43 | 4:16.27 | 249568 | 268794
14 | 59:43.70 | 4:12.71 | 268795 | 287765
15 | 63:56.66 | 3:17.71 | 287766 | 302611

Range status and errors

Selected range Filename C:\Users\Deris\Desktop\kpnemo.eu\TiTu30\cd2\Tina Turner - Private Dancer - 30th Anniversary Edition - Disc 2.wav Peak level 98.0 %
Extraction speed 5.0 X
Range quality 99.9 %
Test CRC 9D5110AC
Copy CRC 9D5110AC
Copy OK

No errors occurred


AccurateRip summary

Track 1 accurately ripped (confidence 5) [EEBF04EA] (AR v2)
Track 2 accurately ripped (confidence 5) [5318CD82] (AR v2)
Track 3 accurately ripped (confidence 5) [FCC65971] (AR v2)
Track 4 accurately ripped (confidence 5) FDBFCFA (AR v2)
Track 5 accurately ripped (confidence 5) [685CDC65] (AR v2)
Track 6 accurately ripped (confidence 5) [D33A52D6] (AR v2)
Track 7 accurately ripped (confidence 5) [F45C795F] (AR v2)
Track 8 accurately ripped (confidence 5) [7517FD6A] (AR v2)
Track 9 accurately ripped (confidence 5) [74586969] (AR v2)
Track 10 accurately ripped (confidence 5) [5EA4B2E7] (AR v2)
Track 11 accurately ripped (confidence 5) [A63B905D] (AR v2)
Track 12 accurately ripped (confidence 5) [F636DEED] (AR v2)
Track 13 accurately ripped (confidence 5) DA0C1B4 (AR v2)
Track 14 accurately ripped (confidence 5) [F30719AB] (AR v2)
Track 15 accurately ripped (confidence 5) [FA460F0A] (AR v2)

All tracks accurately ripped

End of status report

- CUETools DB Plugin V2.1.3

[CTDB TOCID: 90kBFbHYMT88_VraEOyToN0zSzc-] found, Submit result: 90kBFbHYMT88_VraEOyToN0zSzc- has been confirmed
[1172f7b9] (22/23) Accurately ripped
[139a4667] (01/23) No match

==== Log checksum 0DEB812F6488E1CB17397E19EA1B0A8DF1ECEF19563787F81FB1DAE979342718 ====

foobar2000 1.2.6 / Dynamic Range Meter 1.1.1
log date: 2015-11-02 06:52:03

Analyzed: Tina Turner / Private Dancer - 30th Anniversary Edition - Disc 2

DR Peak RMS Duration Track

DR7 -0.17 dB -9.21 dB 4:13 01-Ball Of Confusion (That's What The World Is Today) [With BEF]
DR8 -0.17 dB -9.36 dB 3:27 02-I Wrote A Letter
DR11 -0.17 dB -13.94 dB 4:43 03-Rock 'n Roll Widow
DR9 -0.17 dB -11.19 dB 3:47 04-Don't Rush The Good Things
DR8 -0.17 dB -10.21 dB 3:10 05-When I Was Young
DR8 -0.17 dB -9.62 dB 3:30 06-Keep Your Hands Off My Baby
DR8 -0.17 dB -10.33 dB 4:06 07-Tonight (With David Bowie)
DR9 -0.17 dB -10.51 dB 4:13 08-Let's Pretend We're Married (Live)
DR10 -0.17 dB -12.73 dB 5:45 09-What's Love Got To Do With It (Extended 12-Inch Remix)
DR9 -0.17 dB -11.21 dB 7:04 10-Better Be Good To Me (Extended 12-Inch Remix)
DR9 -0.17 dB -11.21 dB 5:43 11-I Can't Stand The Rain (Extended 12-Inch Remix)
DR9 -0.17 dB -10.79 dB 5:45 12-Show Some Respect (Extended Mix)
DR7 -0.17 dB -8.58 dB 4:16 13-We Don't Need Another Hero (Thunderdome)
DR8 -0.17 dB -9.01 dB 4:13 14-One Of The Living
DR6 -1.19 dB -8.44 dB 3:18 15-It's Only Love (With Bryan Adams)

Number of tracks: 15
Official DR value: DR8

Samplerate: 44100 Hz
Channels: 2
Bits per sample: 16
Bitrate: 977 kbps
Codec: FLAC

[CUETools log; Date: 02.11.2015 6:52:03; Version: 2.1.5]
[CTDB TOCID: 90kBFbHYMT88_VraEOyToN0zSzc-] found.
Track | CTDB Status
1 | (24/24) Accurately ripped
2 | (24/24) Accurately ripped
3 | (24/24) Accurately ripped
4 | (24/24) Accurately ripped
5 | (24/24) Accurately ripped
6 | (24/24) Accurately ripped
7 | (24/24) Accurately ripped
8 | (24/24) Accurately ripped
9 | (24/24) Accurately ripped
10 | (24/24) Accurately ripped
11 | (24/24) Accurately ripped
12 | (24/24) Accurately ripped
13 | (24/24) Accurately ripped
14 | (24/24) Accurately ripped
15 | (23/24) Accurately ripped
[AccurateRip ID: 00238cfd-019a558f-e00fc20f] found.
Track [ CRC | V2 ] Status
01 [f5ad4c5b|eebf04ea] (0+5/7) Accurately ripped
02 [abede622|5318cd82] (0+5/7) Accurately ripped
03 [6cad5fb1|fcc65971] (0+5/7) Accurately ripped
04 [c01c6163|bfdbfcfa] (0+5/7) Accurately ripped
05 80228e1|685cdc65 (0+5/7) Accurately ripped
06 [65f10f44|d33a52d6] (0+5/7) Accurately ripped
07 7c5fffa|f45c795f (0+5/7) Accurately ripped
08 [f8615bd3|7517fd6a] (0+5/7) Accurately ripped
09 [6e587739|74586969] (0+5/7) Accurately ripped
10 [f6e41698|5ea4b2e7] (0+5/7) Accurately ripped
11 [e0e193ea|a63b905d] (0+5/7) Accurately ripped
12 [c951fec6|f636deed] (0+5/7) Accurately ripped
13 [aa9b7508|bda0c1b4] (0+5/7) Accurately ripped
14 [d223fe19|f30719ab] (0+5/7) Accurately ripped
15 [72e44594|fa460f0a] (0+5/7) Accurately ripped
Offsetted by 6:
01 [ee962cf9] (0/7) No match (V2 was not tested)
02 [a1c525cc] (0/7) No match (V2 was not tested)
03 [f06daa71] (0/7) No match (V2 was not tested)
04 [c60edcd9] (0/7) No match (V2 was not tested)
05 [144cdae5] (0/7) No match (V2 was not tested)
06 72947ea (0/7) No match (V2 was not tested)
07 [a0c863e0] (0/7) No match (V2 was not tested)
08 [9057b2f7] (0/7) No match (V2 was not tested)
09 [6323cb3d] (0/7) No match (V2 was not tested)
10 [d0ed14a4] (0/7) No match (V2 was not tested)
11 [82c03524] (0/7) No match (V2 was not tested)
12 [2f954390] (0/7) No match (V2 was not tested)
13 [35af05b0] (0/7) No match (V2 was not tested)
14 [a3b83375] (0/7) No match (V2 was not tested)
15 [cca17e46] (0/7) No match (V2 was not tested)

Track Peak [ CRC32 ] [W/O NULL] [ LOG ]
-- 98,0 [9D5110AC] [6F1E1B79] CRC32
01 98,0 30331C2 [20A03978]
02 98,0 [49A7471D] [D40B8507]
03 98,0 [EAAAF75F] [AD38980D]
04 98,0 [5D8597E6] [CCAA44E1]
05 98,0 [3B2B2F34] [69032BBC]
06 98,0 [D4B7B48D] [7CEF3A6C]
07 98,0 BFA461D [0FDE8879]
08 98,0 [4206CE99] [053FB393]
09 98,0 [61278792] [6082D116]
10 98,0 [CD590312] [080BD3BB]
11 98,0 674A2C1 [39B78CE9]
12 98,0 [EC83504F] [F1BF1439]
13 98,0 [3105D555] [D602D4DF]
14 98,0 [09110D4D] [43942C22]
15 87,1 [44F8DA7F] [7C8DCAEA]

Tina Turner - Private Dancer: 30th Anniversary Edition (2015)


DOWNLOAD
(Premium Recommended)


All above links are interchangable. No password

Direct Download

Tags: Turner, Private, Dancer, Anniversary

Tina Turner - Private Dancer: 30th Anniversary Edition (2015) Download via Hotfile Rapidshare Fileserve Megaupload & FileSonic, Tina Turner - Private Dancer: 30th Anniversary Edition (2015) free torrent downloads included crack, serial, keygen.


Attention!Information

Members of Guest cannot leave comments.