Medina Azahara - Donde esta la luz (1993)

Download Now

Medina Azahara - Donde esta la luz (1993)

Medina Azahara - Donde esta la luz (1993)
EAC Rip | FLAC (image & cue & log) | 337 MB | MP3 CBR 320 kbps | 122 MB | Scans | 46:09
Genre: Progressive Rock / Symphonic Prog Rock / AOR | Country: Spain | Label: Avispa | ACD - 021

"MEDINA AZAHARA plays song oriented rock with a few symphonic touches, strong Andalusian vocals, and lots of preening lead and rhythm guitars. The tracks range from hard rock to power ballads, not exactly an impressive range. In "El Hakim", the group threw in some fine Spanish guitar licks, but they are not to be found here. About half the tracks on the original CD re-release are at least mildly interesting, but none stand out : "A Toda Esa Gente", "No Quiero Pensar en ese Amor", "La Tierra Perdida", "Tu Mirada" would be in that category, and also adequately represent the limited stylistic breadth. One of the bonus tracks is an alternate version of the excellent "Otono" which originally appeared on "el Hakim". And at this point the group does appear to be recycling, in dire need of a new creative infusion. At this point almost any new direction would be welcome."



Tracklist:

1. A toda esa gente
2. Palabras de libertad
3. La luz de mi camino
4. La tierra perdida (O.U.A.)
5. No quiero pensar en ese amor
6. No necesito palablas
7. Tu mirada
8. El pozo de mi sed
9. Miedo a despertar
10. Dame tu mano
11. Otono

Exact Audio Copy V1.0 beta 2 from 29. April 2011

Отчёт EAC об извлечении, выполненном 22. февраля 2012, 15:58

Medina Azahara / Donde Esta la Luz

Дисковод: ATAPI iHAP122 W Adapter: 3 ID: 1

Режим чтения : Достоверность
Использование точного потока : Да
Отключение кэша аудио : Да
Использование указателей C2 : Нет

Коррекция смещения при чтении : 6
Способность читать области Lead-in и Lead-out : Нет
Заполнение пропущенных сэмплов тишиной : Да
Удаление блоков с тишиной в начале и конце : Нет
При вычислениях CRC использовались нулевые сэмплы : Нет
Интерфейс : Встроенный Win32-интерфейс для Win NT/2000

Выходной формат : Внутренние WAV-операции
Формат сэмплов : 44.100 Гц; 16 бит; стерео

TOC извлечённого CD Трек | Старт | Длительность | Начальный сектор | Конечный сектор

1 | 0:00.32 | 4:48.30 | 32 | 21661
2 | 4:48.62 | 3:58.13 | 21662 | 39524
3 | 8:47.00 | 4:34.12 | 39525 | 60086
4 | 13:21.12 | 4:11.50 | 60087 | 78961
5 | 17:32.62 | 3:34.50 | 78962 | 95061
6 | 21:07.37 | 3:58.63 | 95062 | 112974
7 | 25:06.25 | 4:45.25 | 112975 | 134374
8 | 29:51.50 | 5:07.00 | 134375 | 157399
9 | 34:58.50 | 3:08.50 | 157400 | 171549
10 | 38:07.25 | 4:12.25 | 171550 | 190474
11 | 42:19.50 | 3:49.62 | 190475 | 207711

Характеристики диапазона извлечения и сообщения об ошибках

Выбранный диапазон Имя файла D:\obraz\Medina Azahara - Donde Esta La Luz (1993)\Medina Azahara - Donde esta la luz\Medina Azahara - Donde Esta la Luz.wav Пиковый уровень 100.0 %
Скорость извлечения 2.9 X
Качество диапазона 100.0 %
CRC теста 393C2160
CRC копии 393C2160
Копирование... OK

Ошибок не произошло


AccurateRip: сводка

Трек 1 отсутствует в базе данных
Трек 2 отсутствует в базе данных
Трек 3 отсутствует в базе данных
Трек 4 отсутствует в базе данных
Трек 5 отсутствует в базе данных
Трек 6 отсутствует в базе данных
Трек 7 отсутствует в базе данных
Трек 8 отсутствует в базе данных
Трек 9 отсутствует в базе данных
Трек 10 отсутствует в базе данных
Трек 11 отсутствует в базе данных

Ни одного трека нет в базе AccurateRip

Конец отчёта

==== Контрольная сумма отчёта 99CE7D96AB19E5E79FAC28B1AD3B669F3E5CC6FA2444A729FED044DE9518177C ====

Personnel

- Manuel Martínez / vocals
- Pablo Rabadán / keyboards
-José Miguel Fernández / bass
-Francisco Ventura / guitar
- Manuel Reyes / drums
DOWNLOAD LINKS
Buy Premium From My Links To Get Resumable Support & Max Speed & To Support Me


Links are Interchangeable - No Password - Single Extraction

Direct Download

Tags: Medina, Azahara

Medina Azahara - Donde esta la luz (1993) Download via Hotfile Rapidshare Fileserve Megaupload & FileSonic, Medina Azahara - Donde esta la luz (1993) free torrent downloads included crack, serial, keygen.


Attention!Information

Members of Guest cannot leave comments.