Legendary Shack Shakers - The Southern Surreal (2015)

Download Now

Legendary Shack Shakers - The Southern Surreal (2015)

Legendary Shack Shakers - The Southern Surreal (2015)
EAC Rip | FLAC (Img) + Cue + Log ~ 233 Mb | MP3 CBR320 ~ 85 Mb
Scans (JPG, 600 dpi) ~ 69 Mb | RAR 5% Recovery
Rockabilly, Psychobilly, Boogie, Blues, Swamp Rock | Alternative Tentacles Records #VIRUS 476

"The infamous, explosive Southern wrecking crew The Legendary Shack Shakers are back with a brand new full-length titled The Southern Surreal. Their first release in five years, the album lands on the band's 20th anniversary and is their Alternative Tentacles debut. In conjunction with its release, the band will tour across much of the United States and Europe this Fall. The Legendary Shack Shakers' incendiary interpretations of the blues, punk, rock and country are all-at-once irreverent, revisionist, dangerous and fun..."

Official Website | Wiki | Discogs | All Music
***************

Legendary Shack Shakers - The Southern Surreal (2015)

Track List:

01. Cow Tools [00:32]
02. Mud [02:27]
03. MisAmerica [03:20]
04. The Grinning Man [00:25]
05. Cold [03:31]
06. Dead Bury the Dead [04:10]
07. The One that Got Away [02:56]
08. Young Heart, Old Soul [01:36]
09. Fool's Tooth [00:58]
10. The Dog Was Dead (performed by Billy Bob Thornton) [02:31]
11. Down to the Bone [03:42]
12. Christ Allrighty [02:04]
13. Demon Rum [02:02]
14. Buzzard and the Bell [01:54]
15. Born Under a Bad Sign [03:16]

Exact Audio Copy V1.0 beta 3 from 29. August 2011

Отчёт EAC об извлечении, выполненном 3. октября 2015, 18:10

Legendary Shack Shakers / The Southern Surreal

Дисковод: PLEXTOR DVDR PX-880SA Adapter: 1 ID: 0

Режим чтения : Достоверность
Использование точного потока : Да
Отключение кэша аудио : Да
Использование указателей C2 : Нет

Коррекция смещения при чтении : 6
Способность читать области Lead-in и Lead-out : Нет
Заполнение пропущенных сэмплов тишиной : Да
Удаление блоков с тишиной в начале и конце : Нет
При вычислениях CRC использовались нулевые сэмплы : Да
Интерфейс : Установленный внешний ASPI-интерфейс

Выходной формат : Пользовательский кодировщик
Выбранный битрейт : 1024 kBit/s
Качество : Высокий
Добавление ID3-тега : Нет
Утилита сжатия : C:\Program Files\Exact Audio Copy\FLAC\FLAC.EXE
Дополнительные параметры : -8 -V -T "ARTIST=%artist%" -T "ALBUM=%albumtitle%" -T "DATE=%year%" -T "GENRE=%genre%" -T "COMMENT=ripped by izia1956" %source%

TOC извлечённого CD Трек | Старт | Длительность | Начальный сектор | Конечный сектор

1 | 0:00.00 | 0:31.58 | 0 | 2382
2 | 0:31.58 | 2:26.47 | 2383 | 13379
3 | 2:58.30 | 3:19.15 | 13380 | 28319
4 | 6:17.45 | 0:24.22 | 28320 | 30141
5 | 6:41.67 | 3:30.06 | 30142 | 45897
6 | 10:11.73 | 4:09.25 | 45898 | 64597
7 | 14:21.23 | 2:55.62 | 64598 | 77784
8 | 17:17.10 | 1:35.28 | 77785 | 84937
9 | 18:52.38 | 0:57.18 | 84938 | 89230
10 | 19:49.56 | 2:30.15 | 89231 | 100495
11 | 22:19.71 | 3:41.12 | 100496 | 117082
12 | 26:01.08 | 2:03.59 | 117083 | 126366
13 | 28:04.67 | 2:01.50 | 126367 | 135491
14 | 30:06.42 | 1:53.72 | 135492 | 144038
15 | 32:00.39 | 3:15.44 | 144039 | 158707

Характеристики диапазона извлечения и сообщения об ошибках

Выбранный диапазон Имя файла D:\BitComet\Th' Legendary Shack Shakers(flac)\2015 - The Southern Surreal\Legendary Shack Shakers - The Southern Surreal.wav Пиковый уровень 98.2 %
Скорость извлечения 2.9 X
Качество диапазона 100.0 %
CRC теста 53CDFA7E
CRC копии 53CDFA7E
Копирование... OK

Ошибок не произошло


AccurateRip: сводка

Трек 1 отсутствует в базе данных
Трек 2 отсутствует в базе данных
Трек 3 отсутствует в базе данных
Трек 4 отсутствует в базе данных
Трек 5 отсутствует в базе данных
Трек 6 отсутствует в базе данных
Трек 7 отсутствует в базе данных
Трек 8 отсутствует в базе данных
Трек 9 отсутствует в базе данных
Трек 10 отсутствует в базе данных
Трек 11 отсутствует в базе данных
Трек 12 отсутствует в базе данных
Трек 13 отсутствует в базе данных
Трек 14 отсутствует в базе данных
Трек 15 отсутствует в базе данных

Ни одного трека нет в базе AccurateRip

Конец отчёта

==== Контрольная сумма отчёта A65B1F9D179EC465CE0D47D6C5805AFCEF30060F821D405CCE382EA88522768E ====

foobar2000 1.2.6 / Dynamic Range Meter 1.1.1
log date: 2015-11-02 15:36:41

Analyzed: Legendary Shack Shakers / The Southern Surreal

DR Peak RMS Duration Track

DR9 -0.20 dB -13.68 dB 0:32 01-Cow Tools
DR5 -0.20 dB -6.64 dB 2:27 02-Mud
DR6 -0.20 dB -6.93 dB 3:19 03-MisAmerica
DR9 -4.18 dB -21.47 dB 0:24 04-The Grinning Man
DR7 -0.15 dB -7.60 dB 3:30 05-Cold
DR7 -0.20 dB -7.85 dB 4:09 06-Dead Bury the Dead
DR8 -0.20 dB -9.05 dB 2:56 07-The One that Got Away
DR6 -0.20 dB -6.78 dB 1:35 08-Young Heart, Old Soul
DR6 -0.20 dB -7.69 dB 0:57 09-Fool's Tooth
DR13 -2.79 dB -17.32 dB 2:30 10-The Dog Was Dead (performed by Billy Bob Thornton)
DR6 -0.20 dB -8.66 dB 3:41 11-Down to the Bone
DR5 -0.16 dB -6.36 dB 2:04 12-Christ Allrighty
DR10 -1.14 dB -12.35 dB 2:02 13-Demon Rum
DR7 -0.15 dB -8.65 dB 1:54 14-Buzzard and the Bell
DR7 -0.21 dB -9.08 dB 3:16 15-Born Under a Bad Sign

Number of tracks: 15
Official DR value: DR7

Samplerate: 44100 Hz
Channels: 2
Bits per sample: 16
Bitrate: 879 kbps
Codec: FLAC

[CUETools log; Date: 02.11.2015 15:36:21; Version: 2.1.5]
[CTDB TOCID: z94C.czCcGJHuLyJ3zLlMpftnYM-] found.
Track | CTDB Status
1 | (2/2) Accurately ripped
2 | (2/2) Accurately ripped
3 | (2/2) Accurately ripped
4 | (2/2) Accurately ripped
5 | (2/2) Accurately ripped
6 | (2/2) Accurately ripped
7 | (2/2) Accurately ripped
8 | (2/2) Accurately ripped
9 | (2/2) Accurately ripped
10 | (2/2) Accurately ripped
11 | (2/2) Accurately ripped
12 | (2/2) Accurately ripped
13 | (2/2) Accurately ripped
14 | (2/2) Accurately ripped
15 | (2/2) Accurately ripped
[AccurateRip ID: 0012992c-00d69f77-b408440f] found.
Track [ CRC | V2 ] Status
01 [a377bd7a|c2d41a99] (0+1/1) Accurately ripped
02 [1b0a71fc|8fb12e1f] (0+1/1) Accurately ripped
03 [0933e405|edd7a982] (0+1/1) Accurately ripped
04 [eeb97126|7155463b] (0+1/1) Accurately ripped
05 [7977bce2|99c02c7f] (0+1/1) Accurately ripped
06 [0782181c|63b03980] (0+1/1) Accurately ripped
07 [1c7bce0a|236a59d9] (0+1/1) Accurately ripped
08 [2dc4dd35|00a59e81] (0+1/1) Accurately ripped
09 [6583c580|1e071265] (0+1/1) Accurately ripped
10 [4ac6e30a|aefbc1d4] (0+1/1) Accurately ripped
11 [2161e28a|c0446627] (0+1/1) Accurately ripped
12 [2e81e1d5|8525caef] (0+1/1) Accurately ripped
13 [4e4dea41|8635c829] (0+1/1) Accurately ripped
14 [89276d18|e1e89969] (0+1/1) Accurately ripped
15 [dd41da6c|347712ef] (0+1/1) Accurately ripped

Track Peak [ CRC32 ] [W/O NULL] [ LOG ]
-- 98,2 [53CDFA7E] [8AC0987D] CRC32
01 97,7 [446EC1C7] [AF86A79F]
02 97,7 [423EC63E] [82EBE732]
03 97,7 [5D42B96D] [EF5A3915]
04 61,7 [034C4D96] [8B359D93]
05 98,2 [EC31867D] [2E8B940F]
06 97,7 [D4C4FEA4] [7F3A7DC1]
07 97,7 [56003A92] [2157EEFF]
08 97,7 [3F9C5490] [2029209D]
09 97,7 [2D2EE740] [3B15CFF3]
10 72,5 4AD4DEB [9AFEF4CD]
11 97,7 [8CD4ECB6] [84477EF5]
12 98,1 [A001FC88] [7D64973E]
13 87,6 [5F5B6B84] 7F813E7
14 98,2 [8F52E119] [D45DF05A]
15 97,6 [E9920D03] [D46A380E]

Legendary Shack Shakers - The Southern Surreal (2015)


DOWNLOAD
(Premium Recommended)


All above links are interchangable. No password

Direct Download

Tags: Legendary, Shakers, Southern, Surreal

Legendary Shack Shakers - The Southern Surreal (2015) Download via Hotfile Rapidshare Fileserve Megaupload & FileSonic, Legendary Shack Shakers - The Southern Surreal (2015) free torrent downloads included crack, serial, keygen.


Attention!Information

Members of Guest cannot leave comments.