Rêve Général - Howl (2015)

Download Now

Rêve Général - Howl (2015)

Rêve Général - Howl (2015)
EAC Rip | FLAC (Img) + Cue + Log ~ 353 Mb | MP3 CBR320 ~ 140 Mb
Scans (PNG, 600 dpi) ~ 123 Mb | RAR 5% Recovery
RIO, Chamber Rock, Avant-Prog | AltrOck Productions #ALT 049

"Debut for a band whose members are well-known on the avant-prog and RIO music scene in France and abroad. Volapük and Metamorphosis are the projects from which come Takumi Fukushima (violin, vocals), Guillaume Saurel (cello, vocals), Christoph Pajer (violin, vocals), Jan Kavan (cello), Richard Deutsch (guitar, vocals, mixing), Martin Alacam (guitar) and Guigou Chenevier (drums). Chenevier was founder not only of Volapük but also of Etron Fou Leloublan and Les Batterries. The "General Dream" including through 2 violins, 2 guitars and 2 cellos opens onto vast and uncharted musical horizons, ranging from chamber-rock to Rock In Opposition..."

Rêve Général - Howl (2015)

Official Website | Discogs
***************

Rêve Général - Howl (2015)

Track List:

01. Ne jak [04:28]
02. War [05:34]
03. Si tu Veux [04:53]
04. 5/4 [06:36]
05. Un Breve Historie du Temps [02:44]
06. Winesoup Cowboys [05:32]
07. Dunaj [04:31]
08. Hashiru Reve (Reve qui court) [05:05]
09. Paralyse [04:53]
10. 11 [02:24]
11. Vodka Express [05:14]
12. Death Of Illusions [06:37]

Exact Audio Copy V1.1 from 23. June 2015

EAC extraction logfile from 22. October 2015, 18:27

Reve General / Howl

Used drive : TSSTcorpCDDVDW SH-S223C Adapter: 1 ID: 0

Read mode : Secure
Utilize accurate stream : Yes
Defeat audio cache : Yes
Make use of C2 pointers : No

Read offset correction

: 697
Overread into Lead-In and Lead-Out : No
Fill up missing offset samples with silence : Yes
Delete leading and trailing silent blocks : No
Null samples used in CRC calculations : Yes
Used interface
: Native Win32 interface for Win NT & 2000

Used output format : User Defined Encoder
Selected bitrate : 128 kBit/s
Quality : High
Add ID3 tag : No
Command line compressor : C:\Program Files (x86)\Exact Audio Copy\wavpack\wavpack.exe
Additional command line options : -hm -w "Year=%year%" -w "Genre=%genre%" %source% %dest%

TOC of the extracted CD Track | Start | Length | Start sector | End sector
--1 | 0:00.00 | 4:27.12 | 0 | 20036 2 | 4:27.12 | 5:33.65 | 20037 | 45076 3 | 10:01.02 | 4:52.18 | 45077 | 66994 4 | 14:53.20 | 6:35.25 | 66995 | 96644 5 | 21:28.45 | 2:43.64 | 96645 | 108933 6 | 24:12.34 | 5:31.29 | 108934 | 133787 7 | 29:43.63 | 4:30.01 | 133788 | 154038 8 | 34:13.64 | 5:04.51 | 154039 | 176889 9 | 39:18.40 | 4:52.31 | 176890 | 198820
10 | 44:10.71 | 2:23.04 | 198821 | 209549
11 | 46:34.00 | 5:13.53 | 209550 | 233077
12 | 51:47.53 | 6:36.03 | 233078 | 262780

Range status and errors

Selected range Filename D:\_NL+_\_CD\Reve General - Howl.wav Peak level 97.6 %
Extraction speed 6.5 X
Range quality 100.0 %
Test CRC F72A9F95
Copy CRC F72A9F95
Copy OK

No errors occurred


AccurateRip summary

Track 1 not present in database
Track 2 not present in database
Track 3 not present in database
Track 4 not present in database
Track 5 not present in database
Track 6 not present in database
Track 7 not present in database
Track 8 not present in database
Track 9 not present in database
Track 10 not present in database
Track 11 not present in database
Track 12 not present in database

None of the tracks are present in the AccurateRip database

End of status report

- CUETools DB Plugin V2.1.6

[CTDB TOCID: HNN8itH56c6S6r0TB6eYYMC85wM-] disk not present in database
Submit result: HNN8itH56c6S6r0TB6eYYMC85wM- has been uploaded

==== Log checksum 01FCFF6EDBE264EEC7C867F9E9897A131D97916E784909013BEE7633F07B2081 ====

foobar2000 1.2.6 / Dynamic Range Meter 1.1.1
log date: 2015-11-02 05:55:15

Analyzed: Reve General / Howl

DR Peak RMS Duration Track

DR9 -0.40 dB -12.65 dB 4:27 01-Nejak
DR9 -0.40 dB -11.07 dB 5:34 02-War
DR9 -0.40 dB -11.48 dB 4:52 03-Si tu Veux
DR8 -0.40 dB -10.25 dB 6:35 04-5/4
DR9 -0.40 dB -12.57 dB 2:44 05-Un Breve Historie du Temps
DR9 -0.40 dB -11.77 dB 5:31 06-Winesoup Cowboys
DR9 -0.40 dB -11.65 dB 4:30 07-Dunaj
DR14 -0.20 dB -18.52 dB 5:05 08-Hashiru Reve (Reve qui court)
DR9 -0.40 dB -11.88 dB 4:52 09-Paralyse
DR10 -0.20 dB -13.89 dB 2:23 10-11
DR8 -0.40 dB -11.66 dB 5:14 11-Vodka Express
DR8 -0.40 dB -12.34 dB 6:36 12-Death Of Illusions

Number of tracks: 12
Official DR value: DR9

Samplerate: 44100 Hz
Channels: 2
Bits per sample: 16
Bitrate: 803 kbps
Codec: FLAC

[CUETools log; Date: 02.11.2015 5:52:34; Version: 2.1.5]
[CTDB TOCID: HNN8itH56c6S6r0TB6eYYMC85wM-] found.
Track | CTDB Status
1 | (1/1) Accurately ripped
2 | (1/1) Accurately ripped
3 | (1/1) Accurately ripped
4 | (1/1) Accurately ripped
5 | (1/1) Accurately ripped
6 | (1/1) Accurately ripped
7 | (1/1) Accurately ripped
8 | (1/1) Accurately ripped
9 | (1/1) Accurately ripped
10 | (1/1) Accurately ripped
11 | (1/1) Accurately ripped
12 | (1/1) Accurately ripped
[AccurateRip ID: 001a0a8b-00f1cf86-ac0daf0c] disk not present in database.

Track Peak [ CRC32 ] [W/O NULL] [ LOG ]
-- 97,6 [F72A9F95] [D4613393] CRC32
01 95,4 [5D6B8A76] [959D2EDF]
02 95,4 [13FCDDD7] [C0643FFD]
03 95,4 [08A10949] [95565024]
04 95,4 [38BE1CB6] [58322618]
05 95,4 BDFF82B [3A3447B4]
06 95,4 [12169386] [84CA0CA5]
07 95,4 [840A2D9D] [4B8BB1BD]
08 97,6 [D033037F] [CADE6447]
09 95,4 [8ECC9037] [1D5AAA63]
10 97,6 2BAC9AC [8CC7CDCA]
11 95,4 [4ED2AF71] [C4BA779A]
12 95,4 [C4B52472] [65DA3F09]

Rêve Général - Howl (2015)

Rêve Général - Howl (2015)


DOWNLOAD LINKS:
Buy Premium To Support Me & Get Resumable Support & Max Speed


Links are Interchangeable - No Password - Single Extraction

Direct Download

Rêve Général - Howl (2015) Download via Hotfile Rapidshare Fileserve Megaupload & FileSonic, Rêve Général - Howl (2015) free torrent downloads included crack, serial, keygen.


Attention!Information

Members of Guest cannot leave comments.