Legendary Shack Shakers - agri·dustrial (2010)

Download Now

Legendary Shack Shakers - agri·dustrial (2010)

Legendary Shack Shakers - agri·dustrial (2010)
EAC Rip | FLAC (Img) + Cue + Log ~ 277 Mb | MP3 CBR320 ~ 92 Mb
Scans (JPG, 600 dpi) ~ 58 Mb | RAR 5% Recovery
Alternative Rock, Psychobilly, Alternative Country Rock, Swamp Blues | Colonel Knowledge Records #CKR-21682

"The Legendary Shack Shakers have long been known for their knack for grinding up the most unstable aspects of American roots music forms, including redneck country, punk, honky tonk, swamp blues, garage rock, and primal rockabilly and serving them up in a dark, steaming, 200-proof cocktail of chaos..."

Legendary Shack Shakers - agri·dustrial (2010)

Official Website | Wiki | Discogs | All Music
***************

Legendary Shack Shakers - agri·dustrial (2010)

Track List:

01. Melungeon Lady [00:35]
02. Sin Eater [03:14]
03. Sugar Baby [01:58]
04. Nightride [02:37]
05. Dixie Iron Fist [02:31]
06. Two Tickets [02:58]
07. God Fearing People [02:57]
08. Greasy Creek [02:04]
09. Hammer and Tongs [04:05]
10. Hog-Eyed Man [01:55]
11. Dump Road Yodel [02:12]
12. Hoboes are my Heroes [03:19]
13. Everything I Ever Wanted to Do... [02:44]
14. The Hills of Hell [01:43]
15. The Lost Cause [02:35]
16. Killswitch [00:43]

Exact Audio Copy V1.0 beta 3 from 29. August 2011

Отчёт EAC об извлечении, выполненном 3. октября 2015, 14:15

Legendary Shack Shakers / Agri-Dustrial

Дисковод: PLEXTOR DVDR PX-880SA Adapter: 1 ID: 0

Режим чтения : Достоверность
Использование точного потока : Да
Отключение кэша аудио : Да
Использование указателей C2 : Нет

Коррекция смещения при чтении : 6
Способность читать области Lead-in и Lead-out : Нет
Заполнение пропущенных сэмплов тишиной : Да
Удаление блоков с тишиной в начале и конце : Нет
При вычислениях CRC использовались нулевые сэмплы : Да
Интерфейс : Установленный внешний ASPI-интерфейс

Выходной формат : Пользовательский кодировщик
Выбранный битрейт : 1024 kBit/s
Качество : Высокий
Добавление ID3-тега : Нет
Утилита сжатия : C:\Program Files\Exact Audio Copy\FLAC\FLAC.EXE
Дополнительные параметры : -8 -V -T "ARTIST=%artist%" -T "ALBUM=%albumtitle%" -T "DATE=%year%" -T "GENRE=%genre%" -T "COMMENT=ripped by izia1956" %source%

TOC извлечённого CD Трек | Старт | Длительность | Начальный сектор | Конечный сектор

1 | 0:00.31 | 0:34.44 | 31 | 2624
2 | 0:35.00 | 3:13.41 | 2625 | 17140
3 | 3:48.41 | 1:57.63 | 17141 | 25978
4 | 5:46.29 | 2:36.10 | 25979 | 37688
5 | 8:22.39 | 2:30.74 | 37689 | 49012
6 | 10:53.38 | 2:57.36 | 49013 | 62323
7 | 13:50.74 | 2:56.56 | 62324 | 75579
8 | 16:47.55 | 2:03.69 | 75580 | 84873
9 | 18:51.49 | 4:04.63 | 84874 | 103236
10 | 22:56.37 | 1:54.60 | 103237 | 111846
11 | 24:51.22 | 2:11.17 | 111847 | 121688
12 | 27:02.39 | 3:18.46 | 121689 | 136584
13 | 30:21.10 | 2:43.34 | 136585 | 148843
14 | 33:04.44 | 1:42.29 | 148844 | 156522
15 | 34:46.73 | 2:34.10 | 156523 | 168082
16 | 37:21.08 | 0:42.52 | 168083 | 171284

Характеристики диапазона извлечения и сообщения об ошибках

Выбранный диапазон Имя файла D:\BitComet\Th' Legendary Shack Shakers(flac)\2010 - Agri-Dustrial\Legendary Shack Shakers - Agri-Dustrial.wav Пиковый уровень 99.6 %
Скорость извлечения 2.7 X
Качество диапазона 100.0 %
CRC теста D05EAE7A
CRC копии D05EAE7A
Копирование... OK

Ошибок не произошло


AccurateRip: сводка

Трек 1 : извлечено точно (доверие 6) [FBB3DEB8] (AR v2)
Трек 2 : извлечено точно (доверие 6) [2298A651] (AR v2)
Трек 3 : извлечено точно (доверие 6) [4AF468E4] (AR v2)
Трек 4 : извлечено точно (доверие 6) [903E2573] (AR v2)
Трек 5 : извлечено точно (доверие 6) [8DAEE6E0] (AR v2)
Трек 6 : извлечено точно (доверие 6) [D418D175] (AR v2)
Трек 7 : извлечено точно (доверие 6) [C867714C] (AR v2)
Трек 8 : извлечено точно (доверие 6) [9CCF749C] (AR v2)
Трек 9 : извлечено точно (доверие 6) [8BE39AC2] (AR v2)
Трек 10 : извлечено точно (доверие 6) [DF38272B] (AR v2)
Трек 11 : извлечено точно (доверие 6) D38C614 (AR v2)
Трек 12 : извлечено точно (доверие 6) [0C088E62] (AR v2)
Трек 13 точность не определена (достоверность 6) AF36605, AccurateRip вернул [57EE7904] (AR v2)
Трек 14 : извлечено точно (доверие 6) [F8C4F01F] (AR v2)
Трек 15 : извлечено точно (доверие 6) [1A41E654] (AR v2)
Трек 16 : извлечено точно (доверие 6) [2896543C] (AR v2)

15 трек(и) скопированы точно
1 трек(и) не удалось проверить на точность

Некоторые треки не прошли проверку на точность

Конец отчёта

==== Контрольная сумма отчёта E8DE33B164E22685139C410AB53FECF36C52376DA21095594E6D7EF4BC3C1540 ====

foobar2000 1.2.6 / Dynamic Range Meter 1.1.1
log date: 2015-11-04 16:54:55

Analyzed: Legendary Shack Shakers / Agri-Dustrial

DR Peak RMS Duration Track

DR12 -2.14 dB -16.80 dB 0:35 01-Melungeon Lady
DR5 -0.10 dB -6.31 dB 3:14 02-Sin Eater
DR7 -0.10 dB -8.34 dB 1:58 03-Sugar Baby
DR7 -0.10 dB -7.66 dB 2:36 04-Nightride
DR5 -0.10 dB -6.47 dB 2:31 05-Dixie Iron Fist
DR6 -0.10 dB -8.14 dB 2:57 06-Two Tickets
DR6 -0.10 dB -7.29 dB 2:57 07-God Fearing People
DR6 -0.10 dB -6.98 dB 2:04 08-Greasy Creek
DR7 -0.10 dB -7.81 dB 4:05 09-Hammer and Tongs
DR6 -0.10 dB -7.77 dB 1:55 10-Hog-Eyed Man
DR5 -0.10 dB -6.34 dB 2:11 11-Dump Road Yodel
DR6 -0.61 dB -8.22 dB 3:19 12-Hoboes are my Heroes
DR5 -0.03 dB -6.60 dB 2:43 13-Everything I Ever Wanted to Do...
DR6 -1.06 dB -8.62 dB 1:42 14-The Hills of Hell
DR7 -0.10 dB -8.45 dB 2:34 15-The Lost Cause
DR5 -0.10 dB -10.10 dB 0:43 16-Killswitch

Number of tracks: 16
Official DR value: DR6

Samplerate: 44100 Hz
Channels: 2
Bits per sample: 16
Bitrate: 968 kbps
Codec: FLAC

[CUETools log; Date: 04.11.2015 16:54:55; Version: 2.1.5]
Pregap length 00:00:31.
[CTDB TOCID: XXKF89z46bw4ad021lC0Mgvd_Dc-] disk not present in database.
[AccurateRip ID: 00167b45-011257af-cc08eb10] found.
Track [ CRC | V2 ] Status
01 [668d5a36|fbb3deb8] (3+6/9) Accurately ripped
02 4fc655d|2298a651 (3+6/9) Accurately ripped
03 [6a3426d1|4af468e4] (3+6/9) Accurately ripped
04 [e5b8d2d4|903e2573] (3+6/9) Accurately ripped
05 [8fdabbf5|8daee6e0] (3+6/9) Accurately ripped
06 [564a7286|d418d175] (3+6/9) Accurately ripped
07 [e72a7c6c|c867714c] (3+6/9) Accurately ripped
08 [1d3d3ab5|9ccf749c] (3+6/9) Accurately ripped
09 [0607ad64|8be39ac2] (3+6/9) Accurately ripped
10 [911f98ff|df38272b] (3+6/9) Accurately ripped
11 [913fd3b8|bd38c614] (3+6/9) Accurately ripped
12 [689fe14b|0c088e62] (3+6/9) Accurately ripped
13 [d016eb23|baf36605] (0+0/8) No match
14 f1aacf9|f8c4f01f (3+6/9) Accurately ripped
15 [dfa9fcb6|1a41e654] (3+6/9) Accurately ripped
16 [6d94351d|2896543c] (3+6/9) Accurately ripped

Track Peak [ CRC32 ] [W/O NULL] [ LOG ]
-- 99,6 [D05EAE7A] [73610F75] CRC32
01 78,1 [2852C261] [25C906BF]
02 98,8 [32CB52DB] [8A52F648]
03 98,8 [68D75995] 0872BDC
04 98,8 [6F6678D3] [1BE5DEC4]
05 98,8 [893AD4A8] [33535ACE]
06 98,8 [6C5A152F] A402068
07 98,8 [E130B5F7] [145AB4AF]
08 98,8 [0D62279E] [5BEDA775]
09 98,8 [F5097FF7] F5F5717
10 98,8 [8DDEB189] [AD702E99]
11 98,8 [0B2CB3DB] [2EE89467]
12 93,2 [7A985F5D] [D309ADA5]
13 99,6 [C352BF10] [443E1D60]
14 88,5 [6D94A6E6] [5612B3CF]
15 98,8 [E5228E33] [1853513A]
16 98,8 [E5FE62EB] [E2D167DC]

Legendary Shack Shakers - agri·dustrial (2010)

DOWNLOAD LINKS:


No Password

Direct Download

Tags: Legendary, Shakers, dustrial

Legendary Shack Shakers - agri·dustrial (2010) Download via Hotfile Rapidshare Fileserve Megaupload & FileSonic, Legendary Shack Shakers - agri·dustrial (2010) free torrent downloads included crack, serial, keygen.


Attention!Information

Members of Guest cannot leave comments.