Larry Coryell - Offering (1972) {Vanguard}

Download Now

Larry Coryell - Offering (1972) {Vanguard}

Larry Coryell - Offering (1972) {Vanguard}
EAC 0.99pb4 | FLAC Image | Cue+Log | Full Scans 600dpi | 277MB + 5% Recovery
Genre: Fusion

"After the splendid Barefoot Boy, would Larry Coryell's troupes manage to follow it up as brilliantly with Offering?? Certainly LC didn't feel the need to change a winning team, so he also kept producer Weiss. With a semi-psych artwork, you'd guess this album would allow for looser themes, but actually, quite the opposite, this is a collection of much tighter tracks."

Track List
01. Foreplay 8:11
02. Ruminations 4:17
03. Scotland I 6:31
04. Offering 6:37
05. The Meditation of November 8th 5:12
06. Beggar's Chant 8:03

musicians
Larry Coryell - guitar
Harry Wilkinson - drums
Mervin Bronson - bass
Mike Mandel - electric piano
Steve Marcus - soprano saxophone

Produced by Danny Weiss

Exact Audio Copy V0.99 prebeta 4 from 23. January 2008

EAC extraction logfile from 10. November 2008, 9:35

Larry Coryell / Offering

Used drive : HL-DT-STDVD-RAM GSA-H30N Adapter: 2 ID: 1

Read mode : Secure
Utilize accurate stream : Yes
Defeat audio cache : Yes
Make use of C2 pointers : No

Read offset correction

: 102
Overread into Lead-In and Lead-Out : No
Fill up missing offset samples with silence : Yes
Delete leading and trailing silent blocks : No
Null samples used in CRC calculations : Yes
Used interface
: Installed external ASPI interface

Used output format : Internal WAV Routines
Sample format : 44.100 Hz; 16 Bit; Stereo

TOC of the extracted CD Track | Start | Length | Start sector | End sector
--1 | 0:00.00 | 8:17.50 | 0 | 37324 2 | 8:17.50 | 4:21.47 | 37325 | 56946 3 | 12:39.22 | 6:31.08 | 56947 | 86279 4 | 19:10.30 | 6:40.27 | 86280 | 116306 5 | 25:50.57 | 5:14.68 | 116307 | 139924 6 | 31:05.50 | 8:13.20 | 139925 | 176919

Range status and errors

Selected range Filename F:\Larry Coryell - Offering.wav Peak level 100.0 %
Range quality 100.0 %
Copy CRC 4E8F9E2B
Copy OK

No errors occurred

End of status report

Analyzed: Larry Coryell / Offering

DR Peak RMS Duration Track

DR10 -0.06 dB -12.36 dB 8:18 01-Foreplay
DR10 -0.06 dB -12.83 dB 4:22 02-Ruminations
DR10 -0.01 dB -12.89 dB 6:31 03-Scotland I
DR11 0.00 dB -12.95 dB 6:40 04-Offering
DR14 -0.61 dB -19.47 dB 5:15 05-The Meditation of November 8th
DR10 0.00 dB -12.06 dB 8:13 06-Beggar's Chant

Number of tracks: 6
Official DR value: DR11

Samplerate: 44100 Hz
Channels: 2
Bits per sample: 16
Bitrate: 932 kbps
Codec: FLAC

Larry Coryell - Offering (1972) {Vanguard}

Larry Coryell - Offering (1972) {Vanguard}

Larry Coryell - Offering (1972) {Vanguard}

Rip by freakout


DOWNLOAD:
Buy Premium From My Links To Get Resumable Support & Max Speed & To Support Me


Links are Interchangeable - No Password

Direct Download

Tags: Coryell, Offering, Vanguard

Larry Coryell - Offering (1972) {Vanguard} Download via Hotfile Rapidshare Fileserve Megaupload & FileSonic, Larry Coryell - Offering (1972) {Vanguard} free torrent downloads included crack, serial, keygen.


Attention!Information

Members of Guest cannot leave comments.