The Soul Survivors Present Sounds of Universal Love (2013) [CDEXP 46]

Download Now

The Soul Survivors Present Sounds of Universal Love (2013) [CDEXP 46]

The Soul Survivors Present Sounds of Universal Love (2013) [CDEXP 46]
EAC Rip | FLAC (Tracks) +CUE, LOG | 650 MB | Covers Included
Soul | Label: Expansion Records | Catalog Number: CDEXP 46

"Sounds Of Universal Love" is a top of the range collection of quality S.O.U.L. from the finest musical champions of the genre. The album is compiled and presented by The Soul Survivors, a publication that since 2006 has featured all the artists selected on this 16 track CD, interviewed by Fitzroy facey (Da Buzzboy). The primary audience for this collection is those in their formative teenage years when artists like Earth Wind & Fire, The Gap Band and Cameo were in their prime. Album also features contemporary artists Omar, Amp Fiddler, Kenny Wellington (from Beggar & Co), Incognito (with a special ‘Latin Remix'), and Personal Life with a mix EXCLUSIVE to this CD. Tracks appearing for the first time on CD are courtesy of Brass Contraction, Steve Arrington and Linda Clifford. An amazing selection of music, as you would expect from Expansion."

Exact Audio Copy V1.0 beta 3 from 29. August 2011

EAC extraction logfile from 1. November 2015, 8:28

Various Artists / Sounds of Universal Love

Used drive : GENERIC CDRCB05 Adapter: 4 ID: 0

Read mode : Secure
Utilize accurate stream : Yes
Defeat audio cache : Yes
Make use of C2 pointers : No

Read offset correction

: 102
Overread into Lead-In and Lead-Out : No
Fill up missing offset samples with silence : Yes
Delete leading and trailing silent blocks : No
Null samples used in CRC calculations : Yes
Used interface
: Native Win32 interface for Win NT & 2000
Gap handling
: Appended to previous track

Used output format : User Defined Encoder
Selected bitrate : 1024 kBit/s
Quality : High
Add ID3 tag : No
Command line compressor : C:\Program Files\FLAC\flac.exe
Additional command line options : -8 -V -T "ARTIST=%artist%" -T "TITLE=%title%" -T "ALBUM=%albumtitle%" -T "DATE=%year%" -T "TRACKNUMBER=%tracknr%" -T "GENRE=%genre%" -T "PERFORMER=%albuminterpret%" -T "COMPOSER=%composer%" %haslyrics%--tag-from-file=LYRICS="%lyricsfile%"%haslyrics% -T "ALBUMARTIST=%albumartist%" -T "DISCNUMBER=%cdnumber%" -T "TOTALDISCS=%totalcds%" -T "TOTALTRACKS=%numtracks%" -T "COMMENT=%comment%" %source% -o %dest%

TOC of the extracted CD Track | Start | Length | Start sector | End sector
--1 | 0:00.00 | 4:37.67 | 0 | 20841 2 | 4:37.67 | 3:56.08 | 20842 | 38549 3 | 8:34.00 | 5:11.65 | 38550 | 61939 4 | 13:45.65 | 5:05.41 | 61940 | 84855 5 | 18:51.31 | 5:18.68 | 84856 | 108773 6 | 24:10.24 | 4:50.74 | 108774 | 130597 7 | 29:01.23 | 4:20.47 | 130598 | 150144 8 | 33:21.70 | 3:14.43 | 150145 | 164737 9 | 36:36.38 | 5:02.44 | 164738 | 187431
10 | 41:39.07 | 7:16.46 | 187432 | 220177
11 | 48:55.53 | 3:53.69 | 220178 | 237721
12 | 52:49.47 | 5:44.33 | 237722 | 263554
13 | 58:34.05 | 6:09.12 | 263555 | 291241
14 | 64:43.17 | 4:49.32 | 291242 | 312948
15 | 69:32.49 | 4:16.26 | 312949 | 332174
16 | 73:49.00 | 5:31.05 | 332175 | 357004

Track 1 Filename G:\POSTS\The Soul Survivors Present Sounds of Universal Love (2013) [CDEXP 46]\01 - Brenda Russell - A Little Bit of Love.wav Pre-gap length 0:00:02.00 Peak level 98.8 %
Extraction speed 2.2 X
Track quality 99.9 %
Test CRC CA584EC3
Copy CRC CA584EC3
Track not present in AccurateRip database
Copy OK

Track 2 Filename G:\POSTS\The Soul Survivors Present Sounds of Universal Love (2013) [CDEXP 46]\02 - Earth Wind & Fire - Love Music.wav Pre-gap length 0:00:01.65 Peak level 95.5 %
Extraction speed 2.6 X
Track quality 100.0 %
Test CRC DFF4A6EC
Copy CRC DFF4A6EC
Track not present in AccurateRip database
Copy OK

Track 3 Filename G:\POSTS\The Soul Survivors Present Sounds of Universal Love (2013) [CDEXP 46]\03 - Lonnie Liston Smith - Journey Into Love.wav Pre-gap length 0:00:01.65 Peak level 98.8 %
Extraction speed 2.8 X
Track quality 100.0 %
Test CRC 78EBFFD7
Copy CRC 78EBFFD7
Track not present in AccurateRip database
Copy OK

Track 4 Filename G:\POSTS\The Soul Survivors Present Sounds of Universal Love (2013) [CDEXP 46]\04 - Omar - Come On (feat. Kele Le Roc).wav Pre-gap length 0:00:01.65 Peak level 98.8 %
Extraction speed 3.0 X
Track quality 100.0 %
Test CRC 80F223F9
Copy CRC 80F223F9
Track not present in AccurateRip database
Copy OK

Track 5 Filename G:\POSTS\The Soul Survivors Present Sounds of Universal Love (2013) [CDEXP 46]\05 - Incognito - Can't Get You Out Of My Head (Latin Project Remix).wav Pre-gap length 0:00:01.65 Peak level 98.8 %
Extraction speed 3.3 X
Track quality 100.0 %
Test CRC 69E63DBE
Copy CRC 69E63DBE
Track not present in AccurateRip database
Copy OK

Track 6 Filename G:\POSTS\The Soul Survivors Present Sounds of Universal Love (2013) [CDEXP 46]\06 - Steve Arrington - Last Nite,Nite Before.wav Pre-gap length 0:00:01.65 Peak level 98.8 %
Extraction speed 3.1 X
Track quality 100.0 %
Test CRC 83B37CF3
Copy CRC 83B37CF3
Track not present in AccurateRip database
Copy OK

Track 7 Filename G:\POSTS\The Soul Survivors Present Sounds of Universal Love (2013) [CDEXP 46]\07 - Brass Construction - Don't Try To Change Me.wav Pre-gap length 0:00:01.65 Peak level 98.8 %
Extraction speed 3.0 X
Track quality 99.9 %
Test CRC 51DD76B6
Copy CRC 51DD76B6
Track not present in AccurateRip database
Copy OK

Track 8 Filename G:\POSTS\The Soul Survivors Present Sounds of Universal Love (2013) [CDEXP 46]\08 - George Duke - Searchin' My Mind.wav Pre-gap length 0:00:01.65 Peak level 98.8 %
Extraction speed 3.3 X
Track quality 100.0 %
Test CRC 3499D0B4
Copy CRC 3499D0B4
Track not present in AccurateRip database
Copy OK

Track 9 Filename G:\POSTS\The Soul Survivors Present Sounds of Universal Love (2013) [CDEXP 46]\09 - Personal Life - One Step Closer (Original Mizell Mix).wav Pre-gap length 0:00:01.65 Peak level 98.8 %
Extraction speed 3.8 X
Track quality 100.0 %
Test CRC 7355CAB2
Copy CRC 7355CAB2
Track not present in AccurateRip database
Copy OK

Track 10 Filename G:\POSTS\The Soul Survivors Present Sounds of Universal Love (2013) [CDEXP 46]\10 - The Impressions - Fan the Fire.wav Pre-gap length 0:00:01.65 Peak level 98.8 %
Extraction speed 4.4 X
Track quality 100.0 %
Test CRC 729E9E1E
Copy CRC 729E9E1E
Track not present in AccurateRip database
Copy OK

Track 11 Filename G:\POSTS\The Soul Survivors Present Sounds of Universal Love (2013) [CDEXP 46]\11 - Linda Clifford - Only Fooling Myself.wav Pre-gap length 0:00:01.65 Peak level 98.8 %
Extraction speed 4.1 X
Track quality 100.0 %
Test CRC 3472F367
Copy CRC 3472F367
Track not present in AccurateRip database
Copy OK

Track 12 Filename G:\POSTS\The Soul Survivors Present Sounds of Universal Love (2013) [CDEXP 46]\12 - Gap Band - Yearning for Your Love.wav Pre-gap length 0:00:01.65 Peak level 98.8 %
Extraction speed 4.6 X
Track quality 100.0 %
Test CRC F02E02FE
Copy CRC F02E02FE
Track not present in AccurateRip database
Copy OK

Track 13 Filename G:\POSTS\The Soul Survivors Present Sounds of Universal Love (2013) [CDEXP 46]\13 - Cameo - Feel Me.wav Pre-gap length 0:00:01.65 Peak level 98.8 %
Extraction speed 4.3 X
Track quality 99.9 %
Test CRC CCB3E4B3
Copy CRC CCB3E4B3
Track not present in AccurateRip database
Copy OK

Track 14 Filename G:\POSTS\The Soul Survivors Present Sounds of Universal Love (2013) [CDEXP 46]\14 - Amp Fiddler - Heaven.wav Pre-gap length 0:00:01.65 Peak level 88.1 %
Extraction speed 4.5 X
Track quality 100.0 %
Test CRC 3A16B05B
Copy CRC 3A16B05B
Track not present in AccurateRip database
Copy OK

Track 15 Filename G:\POSTS\The Soul Survivors Present Sounds of Universal Love (2013) [CDEXP 46]\15 - Patrice Rushen - High In Me.wav Pre-gap length 0:00:01.65 Peak level 98.8 %
Extraction speed 4.8 X
Track quality 100.0 %
Test CRC 4029716E
Copy CRC 4029716E
Track not present in AccurateRip database
Copy OK

Track 16 Filename G:\POSTS\The Soul Survivors Present Sounds of Universal Love (2013) [CDEXP 46]\16 - Kenny Wellington - Bahia.wav Pre-gap length 0:00:01.65 Peak level 93.3 %
Extraction speed 5.1 X
Track quality 100.0 %
Test CRC DB781233
Copy CRC DB781233
Track not present in AccurateRip database
Copy OK

None of the tracks are present in the AccurateRip database

No errors occurred

End of status report

==== Log checksum 4441EEE7290996654194028E4A71A86D4EEBC280C6EF58DC9BE793E96E9980A1 ====

Tracklist:
01. A Little Bit of Love - Brenda Russell
02. Love Music - Earth Wind & Fire
03. Journey Into Love - Lonnie Liston Smith
04. Come On (feat. Kele Le Roc) - Omar
05. Can't Get You Out Of My Head (Latin Project Remix) - Incognito
06. Last Nite/Nite Before - Steve Arrington
07. Don't Try To Change Me - Brass Construction
08. Searchin' My Mind - George Duke
09. One Step Closer (Original Mizell Mix) - Personal Life
10. Fan the Fire - The Impressions
11. Only Fooling Myself - Linda Clifford
12. Yearning for Your Love - Gap Band
13. Feel Me - Cameo
14. Heaven - Amp Fiddler
15. High In Me - Patrice Rushen
16. Bahia - Kenny Wellington
DOWNLOAD LINKS:
Buy Premium To Support Me & Get Resumable Support & Max Speed


Links are Interchangeable - No Password - Single Extraction

Direct Download

Tags: Survivors, Present, Sounds, Universal

The Soul Survivors Present Sounds of Universal Love (2013) [CDEXP 46] Download via Hotfile Rapidshare Fileserve Megaupload & FileSonic, The Soul Survivors Present Sounds of Universal Love (2013) [CDEXP 46] free torrent downloads included crack, serial, keygen.


Attention!Information

Members of Guest cannot leave comments.