John Coltrane - "Live" At The Village Vanguard (1961) {Impulse!-Verve Originals rel 2007}

Download Now


John Coltrane - "Live" At The Village Vanguard (1961) {Impulse!-Verve Originals rel 2007}
John Coltrane - "Live" At The Village Vanguard (1961) {Impulse!-Verve Originals rel 2007}
EAC rip (secure mode) | FLAC (tracks)+CUE+LOG -> 286 Mb | MP3 @320 -> 88 Mb
Full Artwork @ 600 dpi (png) -> 150 Mb | 5% repair rar
© 2007 Impulse! / Verve / UMG | Verve Originals Series | 0602517486256 | LP AS-10
Jazz / Post Bop / Modal Music / Saxophone

"The album newly remastered from the original master tapes. This set documents the four-night stand by John Coltrane (sax) and his quintet at the Village Vanguard in New York City, November 1 -- 5, 1961. Although these are not newly discovered tapes -- as the majority of the selections have turned up on no less than five separate releases -- their restoration is significant in assessing motifs in Coltrane's [read: multi-show] live appearances. Coltrane is accompanied by an all-star ensemble of Eric Dolphy (alto sax/bass clarinet), Garvin Bushell (oboe/contrabassoon), Ahmed Abdul-Malik (oud), McCoy Tyner (piano), Jimmy Garrison (bass), Reggie Workman (bass), Elvin Jones (drums), and Roy Haynes (drums). Their presence is as equally vital as Coltrane's -- inspiring as well as informing the dimensions of improvisation."

John Coltrane - "Live" At The Village Vanguard (1961) {Impulse!-Verve Originals rel 2007}


Personnel:
John Coltrane - soprano saxophone, tenor saxophone
Eric Dolphy - bass clarinet (on SPIRITUAL)
McCoy Tyner - piano
Reggie Workman - bass
Elvin Jones - drums

tracklist:
01. Spiritual
02. Softly as in A Morning Sunrise
03. Chasin' the Trane

Exact Audio Copy V1.1 from 23. June 2015

EAC extraction logfile from 5. November 2015, 23:52

John Coltrane / "Live" At The Village Vanguard

Used drive : TSSTcorpCDDVDW SE-208DB Adapter: 7 ID: 0

Read mode : Secure
Utilize accurate stream : Yes
Defeat audio cache : Yes
Make use of C2 pointers : No

Read offset correction

: 6
Overread into Lead-In and Lead-Out : No
Fill up missing offset samples with silence : Yes
Delete leading and trailing silent blocks : No
Null samples used in CRC calculations : Yes
Used interface
: Installed external ASPI interface
Gap handling
: Appended to previous track

Used output format : User Defined Encoder
Selected bitrate : 1024 kBit/s
Quality : High
Add ID3 tag : No
Command line compressor : C:\Program Files (x86)\FLAC Frontend\tools\flac.exe
Additional command line options : -8 -V -T "ARTIST=%artist%" -T "TITLE=%title%" -T "ALBUM=%albumtitle%" -T "DATE=%year%" -T "TRACKNUMBER=%tracknr%" -T "TOTALTRACKS=%numtracks%" -T "GENRE=%genre%" -T "ALBUMARTIST=%albumartist%" -T "ALBUM ARTIST=%albumartist%" -T "COMMENT=EAC Secure Mode, Test & Copy, AccurateRip, FLAC -8" %source%

TOC of the extracted CD Track | Start | Length | Start sector | End sector
--1 | 0:00.00 | 13:49.55 | 0 | 62229 2 | 13:49.55 | 6:39.39 | 62230 | 92193 3 | 20:29.19 | 16:11.16 | 92194 | 165034

Track 1 Filename M:\_EAC\John Coltrane - Live At The Village Vanguard (1961) [FLAC] {Verve Originals}\01 - Spiritual.wav Pre-gap length 0:00:02.00 Peak level 96.7 %
Extraction speed 1.4 X
Track quality 100.0 %
Test CRC BB8D4BAD
Copy CRC BB8D4BAD
Accurately ripped (confidence 41) [E1AA7976] (AR v2)
Copy OK

Track 2 Filename M:\_EAC\John Coltrane - Live At The Village Vanguard (1961) [FLAC] {Verve Originals}\02 - Softly As In A Morning Sunrise.wav Peak level 98.3 %
Extraction speed 1.6 X
Track quality 100.0 %
Test CRC 3ED85927
Copy CRC 3ED85927
Accurately ripped (confidence 41) [7AFF559F] (AR v2)
Copy OK

Track 3 Filename M:\_EAC\John Coltrane - Live At The Village Vanguard (1961) [FLAC] {Verve Originals}\03 - Chasin' The Trane.wav Peak level 98.2 %
Extraction speed 2.0 X
Track quality 100.0 %
Test CRC E4FD03FA
Copy CRC E4FD03FA
Accurately ripped (confidence 41) [3A54FE54] (AR v2)
Copy OK

All tracks accurately ripped

No errors occurred

End of status report

==== Log checksum 1348FD40ABBB564F4B945F743ECFD659F04810CD300E886BF717D41E8FF51823 ====

John Coltrane - "Live" At The Village Vanguard (1961) {Impulse!-Verve Originals rel 2007}

John Coltrane - "Live" At The Village Vanguard (1961) {Impulse!-Verve Originals rel 2007}

DOWNLOAD
(Premium Recommended)


All above links are interchangable. No password

Direct Download

Tags: Coltrane, Village, Vanguard, Impulse, Originals

John Coltrane - "Live" At The Village Vanguard (1961) {Impulse!-Verve Originals rel 2007} Download via Hotfile Rapidshare Fileserve Megaupload & FileSonic, John Coltrane - "Live" At The Village Vanguard (1961) {Impulse!-Verve Originals rel 2007} free torrent downloads included crack, serial, keygen.


Attention!Information

Members of Guest cannot leave comments.