Diana Krall - Live in Rio (2009) [BDRip 720p]

Download Now

Diana Krall - Live in Rio (2009) [BDRip 720p]

Diana Krall - Live in Rio (2009)
BDRip 720p | MKV | 1280x720, x264, 29,97 fps, ~ 8.8 Mbps | 7.97 GB
Audio: DTS 5.1, 48 kHz, 1.5 Mbps | Length: 01:50:14
Genre: Jazz | Nitroflare/Uploadable/Filefactory

"Diana Krall has had a long time fascination with bossa nova, a type of music which perfectly suits her sophisticated yet sensual style. This culminated in her new studio album "Quiet Nights" (released by Verve in spring 2009) and in this stunning concert filmed in the home of the bossa nova, Rio de Janeiro, in November 2008. Accompanied by her band and an orchestra, Diana Krall delivers a superb set of standards in true bossa nova style but clearly bearing her unique stamp. This DVD captures Diana Krall at her scintillating best."


Diana Krall - Live in Rio (2009) [BDRip 720p]


Tracklist
01. I Love Being Here With You
02. Let's Fall In Love
03. Where Or When
04. Too Marvellous For Words
05. I've Grown Accustomed To His Face
06. Walk On By
07. Frim Fram Sauce
08. Cheek To Cheek
09. You're My Thrill
10. Let's Face The Music And Dance
11. Every Time We Say Goodbye
12. So Nice
13. Quiet Nights
14. Este Seu Olhar
15. Boy From Ipanema
16. I Don't Know Enough About You
17. 'S Wonderful
18. Exactly Like You

General
Unique ID
: 203696221964164497501911602210141947435 (0x993E7720C7AF14418D2CC9CB274CC62B)
Complete name : C:\Users\ggu\Desktop\ggu\Diana Krall Live in Rio 2008 720p Blu-ray DTS x264-SSG.mkv
Format
: Matroska
Format version : Version 1
File size
: 7.97 GiB
Duration
: 1h 50mn
Overall bit rate : 10.3 Mbps
Encoded date : UTC 2009-06-19 18:56:53
Writing application

: mkvmerge v2.4.1 ('Use Me') built on Dec 5 2008 18:30:05
Writing library : libebml v0.7.7 + libmatroska v0.8.1

Video
ID : 1
Format
: AVC
Format/Info
: Advanced Video Codec
Format profile : [email protected]
Format settings, CABAC : Yes
Format settings, ReFrames : 9 frames
Codec ID
: V_MPEG4/ISO/AVC
Duration
: 1h 50mn
Bit rate
: 8 825 Kbps
Width
: 1 280 pixels
Height
: 720 pixels
Display aspect ratio : 16:9
Frame rate mode : Constant
Frame rate
: 29.970 fps
Color space
: YUV
Chroma subsampling

: 4:2:0
Bit depth
: 8 bits
Scan type
: Progressive
Bits/(Pixel*Frame)

: 0.320
Stream size
: 6.64 GiB (83%)
Title
: x264
Writing library : x264 core 67 r1165M 6841c5e
Encoding settings: cabac=1 / ref=9 / deblock=1:-3:-3 / analyse=0x3:0x133 / me=umh / subme=9 / psy_rd=1.0:0.0 / mixed_ref=1 / me_range=24 / chroma_me=1 / trellis=2 / 8x8dct=1 / cqm=0 / deadzone=21,11 / chroma_qp_offset=-2 / threads=3 / nr=0 / decimate=0 / mbaff=0 / bframes=5 / b_pyramid=1 / b_adapt=2 / b_bias=0 / direct=3 / wpredb=1 / keyint=250 / keyint_min=25 / scenecut=40 / rc=2pass / bitrate=8825 / ratetol=1.0 / qcomp=0.60 / qpmin=10 / qpmax=51 / qpstep=4 / cplxblur=20.0 / qblur=0.5 / ip_ratio=1.40 / pb_ratio=1.30 / aq=1:0.80
Language
: English
Default
: Yes
Forced
: No

Audio
ID : 2
Format
: DTS
Format/Info
: Digital Theater Systems
Mode
: 16
Format settings, Endianness : Big
Codec ID
: A_DTS
Duration
: 1h 50mn
Bit rate mode : Constant
Bit rate
: 1 509 Kbps
Channel(s)
: 6 channels
Channel positions: Front: L C R, Side: L R, LFE
Sampling rate : 48.0 KHz
Bit depth
: 24 bits
Compression mode : Lossy
Stream size
: 1.17 GiB (15%)
Title
: DTS 5.1
Language
: English
Default
: Yes
Forced
: No

Menu
00:00:00.000 : en:I Love Being Here With You
00:07:30.450 : en:Let's Fall In Love
00:17:09.028 : en:Where Or When
00:22:09.495 : en:Too Marvellous For Words
00:26:50.843 : en:I've Grown Accustomed To His Face
00:32:02.854 : en:Walk On By
00:37:54.939 : en:Frim Fram Sauce
00:45:08.839 : en:Cheek To Cheek
00:51:52.876 : en:You're My Thrill
00:59:07.444 : en:Let's Face The Music And Dance
01:05:14.277 : en:Every Time We Say Goodbye
01:11:08.731 : en:So Nice
01:15:09.372 : en:Quiet Nights
01:20:41.103 : en:Este Seu Olhar
01:24:07.075 : en:Boy From Ipanema
01:29:35.203 : en:I Don't Know Enough About You
01:39:07.575 : en:'S Wonderful
01:44:09.577 : en:Exactly Like You

Thanks to the original uploader
Download links:
(Buy premium account via my links to have best speed and resumable ability)


Interchangeable links - No Pass

Direct Download

Diana Krall - Live in Rio (2009) [BDRip 720p] Download via Hotfile Rapidshare Fileserve Megaupload & FileSonic, Diana Krall - Live in Rio (2009) [BDRip 720p] free torrent downloads included crack, serial, keygen.


Attention!Information

Members of Guest cannot leave comments.