Britny Fox - Bite Down Hard (1991)

Download Now

Britny Fox - Bite Down Hard (1991)

Britny Fox - Bite Down Hard (1991)
EAC Rip | FLAC (Img) + Cue + Log ~ 303 Mb | MP3 CBR320 ~ 99 Mb
Scans (JPG, 600 dpi) ~ 53 Mb | RAR 5% Recovery
Hard Rock, Glam Metal | EastWest Records America #7 91790-2

"Britny Fox is an American glam metal band from the Philadelphia, Pennsylvania area, initially active from 1985 to 1992 then subsequently reforming from 2000 to 2009 and then again reforming in 2015. They are best known for their music video for "Girlschool" and their minor hit "Long Way to Love" (U.S. No. 100). Bite Down Hard is the first Britny Fox album to feature singer Tommy Paris. It also features guest appearances by then Ozzy Osbourne guitarist Zakk Wylde and Poison drummer Rikki Rockett..."

Britny Fox - Bite Down Hard (1991)

Official Website | Wiki | Discogs | All Music

Britny Fox - Bite Down Hard (1991)

***************

Britny Fox - Bite Down Hard (1991)

Track List:

01. Six Guns Loaded [03:47]
02. Louder [03:54]
03. Liar [04:43]
04. Closer To Your Love [03:49]
05. Over And Out [04:46]
06. Shot From My Gun [04:08]
07. Black And White [03:36]
08. Look My Way [04:33]
09. Lonely Too Long [03:35]
10. Midnight Moses [04:29]

Exact Audio Copy V1.0 beta 6 from 9. April 2015

EAC extraction logfile from 7. November 2015, 9:43

Britny Fox / Bite Down Hard

Used drive : HL-DT-STDVDRAM GH22NS40 Adapter: 1 ID: 0

Read mode : Secure
Utilize accurate stream : Yes
Defeat audio cache : Yes
Make use of C2 pointers : No

Read offset correction

: 667
Overread into Lead-In and Lead-Out : No
Fill up missing offset samples with silence : Yes
Delete leading and trailing silent blocks : No
Null samples used in CRC calculations : Yes
Used interface
: Native Win32 interface for Win NT & 2000

Used output format : User Defined Encoder
Selected bitrate : 1024 kBit/s
Quality : High
Add ID3 tag : Yes
Command line compressor : C:\Program Files\Exact Audio Copy\Flac\flac.exe
Additional command line options : -V -8 -T "Date=%year%" -T "Genre=%genre%" %source%

TOC of the extracted CD Track | Start | Length | Start sector | End sector
--1 | 0:00.32 | 3:46.40 | 32 | 17021 2 | 3:46.72 | 3:53.65 | 17022 | 34561 3 | 7:40.62 | 4:42.25 | 34562 | 55736 4 | 12:23.12 | 3:48.48 | 55737 | 72884 5 | 16:11.60 | 4:45.02 | 72885 | 94261 6 | 20:56.62 | 4:07.03 | 94262 | 112789 7 | 25:03.65 | 3:35.05 | 112790 | 128919 8 | 28:38.70 | 4:32.22 | 128920 | 149341 9 | 33:11.17 | 3:34.23 | 149342 | 165414
10 | 36:45.40 | 4:28.02 | 165415 | 185516

Range status and errors

Selected range Filename I:\Rips\Britny Fox - Bite Down Hard.wav Peak level 97.7 %
Extraction speed 1.6 X
Range quality 100.0 %
Test CRC 2A178506
Copy CRC 2A178506
Copy OK

No errors occurred


AccurateRip summary

Track 1 accurately ripped (confidence 24) [58FBFB33] (AR v2)
Track 2 accurately ripped (confidence 25) [904E467C] (AR v2)
Track 3 accurately ripped (confidence 25) [043358F2] (AR v2)
Track 4 accurately ripped (confidence 25) 9D333BB (AR v2)
Track 5 accurately ripped (confidence 25) [FD184468] (AR v2)
Track 6 accurately ripped (confidence 25) [C4096199] (AR v2)
Track 7 accurately ripped (confidence 24) 3868E7D (AR v2)
Track 8 accurately ripped (confidence 24) [3BC95A0E] (AR v2)
Track 9 accurately ripped (confidence 25) [C19FC394] (AR v2)
Track 10 accurately ripped (confidence 24) [2C453BCB] (AR v2)

All tracks accurately ripped

End of status report

- CUETools DB Plugin V2.1.6

[CTDB TOCID: NsGDcNtePi7CBVrnqKigOplAj84-] found
Submit result: already submitted
Track | CTDB Status
1 | (6/6) Accurately ripped
2 | (6/6) Accurately ripped
3 | (6/6) Accurately ripped
4 | (6/6) Accurately ripped
5 | (6/6) Accurately ripped
6 | (6/6) Accurately ripped
7 | (6/6) Accurately ripped
8 | (6/6) Accurately ripped
9 | (6/6) Accurately ripped
10 | (6/6) Accurately ripped

==== Log checksum 37FC66698BE544EAF8D6F9A299FA3C142A69ABEF2699CCB765CAA5BBF6FC490C ====

foobar2000 1.2.6 / Dynamic Range Meter 1.1.1
log date: 2015-11-07 23:08:32

Analyzed: Britny Fox / Bite Down Hard

DR Peak RMS Duration Track

DR12 -0.20 dB -13.89 dB 3:47 01-Six Guns Loaded
DR12 -0.38 dB -13.80 dB 3:54 02-Louder
DR12 -0.20 dB -15.49 dB 4:42 03-Liar
DR11 -0.86 dB -13.39 dB 3:49 04-Closer To Your Love
DR14 -0.20 dB -16.59 dB 4:45 05-Over And Out
DR12 -0.93 dB -14.53 dB 4:07 06-Shot From My Gun
DR12 -0.46 dB -14.15 dB 3:35 07-Black And White
DR12 -0.20 dB -13.95 dB 4:32 08-Look My Way
DR12 -0.20 dB -13.78 dB 3:34 09-Lonely Too Long
DR12 -0.20 dB -14.16 dB 4:28 10-Midnight Moses

Number of tracks: 10
Official DR value: DR12

Samplerate: 44100 Hz
Channels: 2
Bits per sample: 16
Bitrate: 978 kbps
Codec: FLAC

[CUETools log; Date: 07.11.2015 23:08:34; Version: 2.1.5]
Pregap length 00:00:32.
[CTDB TOCID: NsGDcNtePi7CBVrnqKigOplAj84-] found.
Track | CTDB Status
1 | (6/6) Accurately ripped
2 | (6/6) Accurately ripped
3 | (6/6) Accurately ripped
4 | (6/6) Accurately ripped
5 | (6/6) Accurately ripped
6 | (6/6) Accurately ripped
7 | (6/6) Accurately ripped
8 | (6/6) Accurately ripped
9 | (6/6) Accurately ripped
10 | (6/6) Accurately ripped
[AccurateRip ID: 000f82a4-007c5df0-8309a90a] found.
Track [ CRC | V2 ] Status
01 [994efcd1|58fbfb33] (15+24/39) Accurately ripped
02 [736cc0ed|904e467c] (16+25/41) Accurately ripped
03 [11ce99f7|043358f2] (15+25/40) Accurately ripped
04 [9d2e3b08|b9d333bb] (16+25/41) Accurately ripped
05 [fa8a05d1|fd184468] (15+25/40) Accurately ripped
06 7339797|c4096199 (14+25/39) Accurately ripped
07 [e424ffca|b3868e7d] (16+24/40) Accurately ripped
08 [18c76163|3bc95a0e] (15+24/39) Accurately ripped
09 [43bd485a|c19fc394] (14+25/39) Accurately ripped
10 [eff61d64|2c453bcb] (13+24/37) Accurately ripped

Track Peak [ CRC32 ] [W/O NULL] [ LOG ]
-- 97,7 [2A178506] [13EC2A2F] CRC32
01 97,7 [52404298] [FE59E512]
02 95,6 [7DEF1645] [01B0350D]
03 97,7 [95A8677F] [E5169EBD]
04 90,6 [C965DA4C] [5191E6E3]
05 97,7 [171B76BA] [6FEB0376]
06 89,8 [EF6AB88C] [52B3EFFF]
07 94,8 [AD22BE3F] 34BE383
08 97,7 [A7F26AC0] [EF1D1B4D]
09 97,7 [95C6F260] [8E61BEB7]
10 97,7 [F7A6493C] [A435B639]

Britny Fox - Bite Down Hard (1991)

Britny Fox - Bite Down Hard (1991)

DOWNLOAD LINKS:
(Premium Recommended)


All above links are interchangable. No password

Direct Download

Tags: Britny

Britny Fox - Bite Down Hard (1991) Download via Hotfile Rapidshare Fileserve Megaupload & FileSonic, Britny Fox - Bite Down Hard (1991) free torrent downloads included crack, serial, keygen.


Attention!Information

Members of Guest cannot leave comments.