Carey Bell - Last Night (1973)

Download Now

Carey Bell - Last Night (1973)

Carey Bell - Last Night (1973)
Blues | 1cd | EAC Rip | Flac + Cue + Log | covers
One Way, MCAD-22170 | rel: 1995 | 220Mb

Nothing flashy or outrageous here, just a meat-and-potatoes session produced by Al Smith that satisfyingly showcases Bell's charms. Once again, there are hearty tributes to Little Walter ("Last Night") and Muddy Waters ("She's 19 Years Old"), but there's some original stuff too, backed by a combo that boasted a daunting collective experience level: Taylor and Perkins return, along with bassist David Myers and drummer Willie "Big Eyes" Smith.
~Allmusic

Track listing
01. Last Night (3:39)
02. Taking You Downtown (3:03)
03. Rosa, I Love Your Soul (3:33)
04. I'm Worried (3:29)
05. Cho' Cho' Blues (2:39)
06. Tomorrow Night (2:26)
07. She's 19 Years Old (2:46)
08. Leaving In The Morning (2:26)
09. Love Pretty Women (3:23)
10. Mean Mistreater (4:20)
11. Freda (2:23)
12. I Want To See You Tomorrow Night (2:58)
~ (37:05)

Exact Audio Copy V0.99 prebeta 5 from 4. May 2009

EAC extraction logfile from 11. August 2010, 23:03

Carey Bell / Last Night

Used drive : HL-DT-STDVD-RAM GH22NP20 Adapter: 0 ID: 0

Read mode : Secure
Utilize accurate stream : Yes
Defeat audio cache : Yes
Make use of C2 pointers : No

Read offset correction

: 102
Overread into Lead-In and Lead-Out : No
Fill up missing offset samples with silence : Yes
Delete leading and trailing silent blocks : No
Null samples used in CRC calculations : Yes
Used interface
: Native Win32 interface for Win NT & 2000

Used output format : User Defined Encoder
Selected bitrate : 1024 kBit/s
Quality : High
Add ID3 tag : No
Command line compressor : C:\Program Files\FLAC\flac.exe
Additional command line options : -8 -V -T "ARTIST=%a" -T "TITLE=%t" -T "ALBUM=%g" -T "DATE=%y" -T "TRACKNUMBER=%n" -T "GENRE=%m" -T "COMMENT=EAC FLAC -8" %s

TOC of the extracted CD Track | Start | Length | Start sector | End sector
--1 | 0:00.00 | 3:39.10 | 0 | 16434 2 | 3:39.10 | 3:03.10 | 16435 | 30169 3 | 6:42.20 | 3:33.15 | 30170 | 46159 4 | 10:15.35 | 3:29.05 | 46160 | 61839 5 | 13:44.40 | 2:39.05 | 61840 | 73769 6 | 16:23.45 | 2:25.72 | 73770 | 84716 7 | 18:49.42 | 2:45.38 | 84717 | 97129 8 | 21:35.05 | 2:25.65 | 97130 | 108069 9 | 24:00.70 | 3:23.30 | 108070 | 123324
10 | 27:24.25 | 4:20.10 | 123325 | 142834
11 | 31:44.35 | 2:22.45 | 142835 | 153529
12 | 34:07.05 | 2:58.32 | 153530 | 166911

Range status and errors

Selected range Filename C:\pmx222\Carey Bell - Last Night.wav Peak level 97.1 %
Range quality 99.9 %
Test CRC 9B01361C
Copy CRC 9B01361C
Copy OK

No errors occurred


AccurateRip summary

Track 1 accurately ripped (confidence 2) [4EB93451]
Track 2 accurately ripped (confidence 2) [AD1E0AEA]
Track 3 accurately ripped (confidence 2) [4188D700]
Track 4 accurately ripped (confidence 2) [CD0C70C6]
Track 5 accurately ripped (confidence 2) [785BFA51]
Track 6 accurately ripped (confidence 2) [5E8DBC4D]
Track 7 accurately ripped (confidence 2) [FEDEEFC6]
Track 8 accurately ripped (confidence 2) 9228DD7
Track 9 accurately ripped (confidence 2) [03A4237E]
Track 10 accurately ripped (confidence 2) [13C8C05A]
Track 11 accurately ripped (confidence 2) [E785369C]
Track 12 accurately ripped (confidence 2) [5D5BEE82]

All tracks accurately ripped

End of status report

[CUETools log; Date: 2015.11.09. 14:53:17; Version: 2.1.5]
[AccurateRip ID: 0010dbfe-009beead-9708b10c] found.
Track [ CRC | V2 ] Status
01 [4eb93451|ca3fee10] (4+0/4) Accurately ripped
02 [ad1e0aea|99008cfe] (4+0/4) Accurately ripped
03 [4188d700|cc74fb5a] (4+0/4) Accurately ripped
04 [cd0c70c6|db68b497] (4+0/4) Accurately ripped
05 [785bfa51|b1fd4a45] (4+0/4) Accurately ripped
06 [5e8dbc4d|c68c2458] (4+0/4) Accurately ripped
07 [fedeefc6|368b3350] (4+0/4) Accurately ripped
08 9228dd7|1ef9eaab (4+0/4) Accurately ripped
09 [03a4237e|a91fb4a6] (4+0/4) Accurately ripped
10 [13c8c05a|0ce95527] (4+0/4) Accurately ripped
11 [e785369c|51de802b] (4+0/4) Accurately ripped
12 [5d5bee82|7fee0a91] (4+0/4) Accurately ripped

Track Peak [ CRC32 ] [W/O NULL] [ LOG ]
-- 97,1 [9B01361C] [3F97F29D] CRC32
01 93,6 [078A4550] [CEF4737B]
02 82,7 [58FCBB95] [CDF2F3FC]
03 97,1 [6066812A] [8F7FB720]
04 94,8 [06D58B8E] [45999F87]
05 76,3 [456024E8] [D7B6704C]
06 61,6 [CD4F7E24] [A8E96F0D]
07 64,3 [D57C94DC] [5F3BB1B6]
08 75,4 [815A9EDE] [324E7C89]
09 76,3 [C3ABB727] [E9257E53]
10 89,2 [A279B689] [287AAD2D]
11 74,6 2110D6C [50F2E353]
12 80,9 [13173BB6] [9B1A865F]

Thx to pmx222
password: asd
Download links:
(Buy premium account via my links to have best speed and resumable ability)


Interchangeable links - No Pass

Direct Download

Carey Bell - Last Night (1973) Download via Hotfile Rapidshare Fileserve Megaupload & FileSonic, Carey Bell - Last Night (1973) free torrent downloads included crack, serial, keygen.


Attention!Information

Members of Guest cannot leave comments.