Boney James - Futuresoul (2015) {Concord}

Download Now

Boney James - Futuresoul (2015) {Concord}

Boney James - Futuresoul (2015) {Concord}
EAC 1.1 | FLAC tracks level 8 | Cue+Log+M3U | Full Scans 300dpi | 308MB + 5% Recovery
Genre: Jazz-Funk, Smooth Jazz

"James is an extremely impressive master of the good groove. That is something he is at the top of his profession in his ability to get funky with it. For those familiar with and already hooked on James' faithful style of R&B and jazz, Futuresoul rewards your patience since The Beat (Concord, 2013) with multiple moments designed to make heads bob, fingers snap and feet dance. "

Track List
01. Drumline
02. Vinyl
03. A Little Attitude
04. Watchu Gon' Do About It?
05. Either Way
06. Hand In Hand
07. Fortuneteller
08. The Moment
09. Futuresoul
10. Far From Home

musicians
Boney James - tenor, soprano and alto saxes, keyboards, drum programming, acoustic piano
Lenny Castro - percussion
Alex Al - bass
Craig Brockman - keyboards
Jairus Mozee - guitar, bass
Phil Davis - keyboards
Vinnie Colaiuta - drums
Dwayne Smith - bass
Keenan Ephriam - live drums, drum programming
Gerald McCauley - electric piano, synth
Rob Bacon - guitar
Omari Williams - drums
Darrell Smith - keyboards, key bass, drum programming
Marquis Hill - trumpet
Tim Carmon - B3 organ, acoustic piano
Nutty P Beats - drum programming, synth bass
Nikeita Crichlow - background vocals
Stokley - vocals
Dwele - keyboards, drum programming

Produced by Boney James

Exact Audio Copy V1.1 from 23. June 2015

EAC extraction logfile from 13. November 2015, 15:22

Boney James / Futuresoul

Used drive : HL-DT-STDVDRAM GH20NS10 Adapter: 1 ID: 0

Read mode : Secure
Utilize accurate stream : Yes
Defeat audio cache : Yes
Make use of C2 pointers : No

Read offset correction

: 667
Overread into Lead-In and Lead-Out : No
Fill up missing offset samples with silence : Yes
Delete leading and trailing silent blocks : No
Null samples used in CRC calculations : Yes
Used interface
: Native Win32 interface for Win NT & 2000
Gap handling
: Appended to previous track

Used output format : User Defined Encoder
Selected bitrate : 1024 kBit/s
Quality : High
Add ID3 tag : No
Command line compressor : C:\Program Files\Exact Audio Copy\Flac\flac.exe
Additional command line options : -8 -V -T "ARTIST=%artist%" -T "TITLE=%title%" -T "ALBUM=%albumtitle%" -T "DATE=%year%" -T "TRACKNUMBER=%tracknr%" -T "TOTALTRACKS=%numtracks%" -T "GENRE=%genre%" -T "ALBUMARTIST=%albumartist%" -T "ALBUM ARTIST=%albumartist%" -T "COMMENT=EAC Secure Mode, Test & Copy, AccurateRip, FLAC -8" %source%

TOC of the extracted CD Track | Start | Length | Start sector | End sector
--1 | 0:00.00 | 4:17.28 | 0 | 19302 2 | 4:17.28 | 4:06.70 | 19303 | 37822 3 | 8:24.23 | 4:01.52 | 37823 | 55949 4 | 12:26.00 | 3:39.25 | 55950 | 72399 5 | 16:05.25 | 4:08.12 | 72400 | 91011 6 | 20:13.37 | 3:52.46 | 91012 | 108457 7 | 24:06.08 | 4:35.25 | 108458 | 129107 8 | 28:41.33 | 4:24.03 | 129108 | 148910 9 | 33:05.36 | 4:06.44 | 148911 | 167404
10 | 37:12.05 | 4:16.10 | 167405 | 186614

Track 1 Filename D:\Boney James - Futuresoul (2015) [FLAC]\01 - Drumline.wav Pre-gap length 0:00:02.00 Peak level 100.0 %
Extraction speed 3.7 X
Track quality 100.0 %
Test CRC 808CD157
Copy CRC 808CD157
Cannot be verified as accurate (confidence 6) [136565A5], AccurateRip returned [A475370F] (AR v2)
Copy OK

Track 2 Filename D:\Boney James - Futuresoul (2015) [FLAC]\02 - Vinyl.wav Peak level 100.0 %
Extraction speed 4.0 X
Track quality 100.0 %
Test CRC 6DB8F683
Copy CRC 6DB8F683
Cannot be verified as accurate (confidence 6) 43D2C12, AccurateRip returned [C8A0212D] (AR v2)
Copy OK

Track 3 Filename D:\Boney James - Futuresoul (2015) [FLAC]\03 - A Little Attitude.wav Peak level 100.0 %
Extraction speed 3.5 X
Track quality 99.9 %
Test CRC 8901AF01
Copy CRC 8901AF01
Cannot be verified as accurate (confidence 6) [6092945E], AccurateRip returned [EE64ADB9] (AR v2)
Copy OK

Track 4 Filename D:\Boney James - Futuresoul (2015) [FLAC]\04 - Watchu Gon' Do About It.wav Peak level 98.1 %
Extraction speed 4.5 X
Track quality 100.0 %
Test CRC 9A320529
Copy CRC 9A320529
Cannot be verified as accurate (confidence 6) [F021B364], AccurateRip returned [D455A0C0] (AR v2)
Copy OK

Track 5 Filename D:\Boney James - Futuresoul (2015) [FLAC]\05 - Either Way.wav Peak level 100.0 %
Extraction speed 4.9 X
Track quality 100.0 %
Test CRC 94956965
Copy CRC 94956965
Cannot be verified as accurate (confidence 6) [347443FF], AccurateRip returned [FF2057E3] (AR v2)
Copy OK

Track 6 Filename D:\Boney James - Futuresoul (2015) [FLAC]\06 - Hand In Hand.wav Peak level 98.7 %
Extraction speed 5.0 X
Track quality 100.0 %
Test CRC E46AD2F2
Copy CRC E46AD2F2
Cannot be verified as accurate (confidence 6) [1F381DFC], AccurateRip returned [5DA0AD56] (AR v2)
Copy OK

Track 7 Filename D:\Boney James - Futuresoul (2015) [FLAC]\07 - Fortuneteller.wav Peak level 99.4 %
Extraction speed 5.4 X
Track quality 100.0 %
Test CRC BE5FA6D2
Copy CRC BE5FA6D2
Cannot be verified as accurate (confidence 6) [A9351C0E], AccurateRip returned [1A87B152] (AR v2)
Copy OK

Track 8 Filename D:\Boney James - Futuresoul (2015) [FLAC]\08 - The Moment.wav Peak level 97.5 %
Extraction speed 5.6 X
Track quality 100.0 %
Test CRC 01E56B15
Copy CRC 01E56B15
Cannot be verified as accurate (confidence 6) [950E667A], AccurateRip returned [795343FA] (AR v2)
Copy OK

Track 9 Filename D:\Boney James - Futuresoul (2015) [FLAC]\09 - Futuresoul.wav Peak level 100.0 %
Extraction speed 4.9 X
Track quality 100.0 %
Test CRC 8E5C7B8A
Copy CRC 8E5C7B8A
Cannot be verified as accurate (confidence 6) C8563EC, AccurateRip returned [01868650] (AR v2)
Copy OK

Track 10 Filename D:\Boney James - Futuresoul (2015) [FLAC]\10 - Far From Home.wav Peak level 98.2 %
Extraction speed 6.0 X
Track quality 100.0 %
Test CRC 043CC0C1
Copy CRC 043CC0C1
Cannot be verified as accurate (confidence 6) [0060E751], AccurateRip returned [17871A78] (AR v2)
Copy OK

No tracks could be verified as accurate
You may have a different pressing from the one(s) in the database

No errors occurred

End of status report

- CUETools DB Plugin V2.1.6

[CTDB TOCID: knMTRiXbFuzNjJxPjUYDZGv0TtY-] found
Submit result: knMTRiXbFuzNjJxPjUYDZGv0TtY- has been confirmed
Track | CTDB Status
1 | (16/16) Accurately ripped
2 | (16/16) Accurately ripped
3 | (16/16) Accurately ripped
4 | (16/16) Accurately ripped
5 | (16/16) Accurately ripped
6 | (16/16) Accurately ripped
7 | (16/16) Accurately ripped
8 | (16/16) Accurately ripped
9 | (16/16) Accurately ripped
10 | (16/16) Accurately ripped

==== Log checksum 8695CD68FB82F06DE048418E28868AEF03B135AF5A3A2F455D2ECA90C1BA943B ====

Analyzed: Boney James / Futuresoul

DR Peak RMS Duration Track

DR8 0.00 dB -9.41 dB 4:17 01-Drumline
DR8 0.00 dB -10.79 dB 4:07 02-Vinyl
DR8 0.00 dB -9.61 dB 4:02 03-A Little Attitude
DR8 -0.16 dB -10.63 dB 3:39 04-Watchu Gon' Do About It?
DR8 0.00 dB -9.98 dB 4:08 05-Either Way
DR8 -0.11 dB -9.52 dB 3:53 06-Hand In Hand
DR8 -0.05 dB -10.15 dB 4:35 07-Fortuneteller
DR9 -0.21 dB -10.77 dB 4:24 08-The Moment
DR7 0.00 dB -9.32 dB 4:07 09-Futuresoul
DR9 -0.15 dB -11.35 dB 4:16 10-Far From Home

Number of tracks: 10
Official DR value: DR8

Samplerate: 44100 Hz
Channels: 2
Bits per sample: 16
Bitrate: 799 kbps
Codec: FLAC

Boney James - Futuresoul (2015) {Concord}

Boney James - Futuresoul (2015) {Concord}

Boney James - Futuresoul (2015) {Concord}

Rip by tiburon


Download links:
(Buy premium account via my links to have best speed and resumable ability)


Interchangeable links - No Pass

Direct Download

Tags: Futuresoul, Concord

Boney James - Futuresoul (2015) {Concord} Download via Hotfile Rapidshare Fileserve Megaupload & FileSonic, Boney James - Futuresoul (2015) {Concord} free torrent downloads included crack, serial, keygen.


Attention!Information

Members of Guest cannot leave comments.