The New Piccadillys - Introducing... The New Piccadillys (2014) [Japanese Pressing] 151116

Download Now

The New Piccadillys - Introducing... The New Piccadillys (2014) [Japanese Pressing] 151116

The New Piccadillys - Introducing... The New Piccadillys (2014) [Japanese Pressing] 151116
The New Piccadillys - Introducing... The New Piccadillys (2014) [Japanese Pressing]
EAC | FLAC+CUE+LOG or MP3 CBR 320 | Complete Scanwork | 230 or 101 MB
The long awaited debut album by Scottish garage-beat-punk-sensation The New Piccadillys.
You can call it Punk goes Mersey Beat or Buddy Holly sings the Ramones... No matter! Here's a nostalgic, magnificent stuff, performed in a cheerful, upbeat manner. This is a fabulous Merseybeat-rooted homage to mainly Punkrock and R&B-classics. Recommended to any interested person.

Tracklist:
01. Judy Is A Punk
02. You Drive Me Ape (You Big Gorilla)
03. I'd Much Rather Be With The Boys
04. Complete Control
05. If You Don't Come Back
06. Misery
07. Voodoo Chile
08. I Took My Baby Home
09. Keep Her Guessin'
10. Break-A-Way
11. All Through The City
12. The Owl And The Pussycat
13. Was She Tall
14. Rock And Roll
Exact Audio Copy V1.1 from 23. June 2015
EAC extraction logfile from 5. August 2015, 7:56
The New Piccadillys / Introducing The New Piccadillys
Used drive : ASUS DRW-24B1ST Adapter: 1 ID: 0
Read mode : Secure
Utilize accurate stream : Yes
Defeat audio cache : Yes
Make use of C2 pointers : No
Read offset correction
: 6
Overread into Lead-In and Lead-Out : No
Fill up missing offset samples with silence : Yes
Delete leading and trailing silent blocks : No
Null samples used in CRC calculations : Yes
Used interface
: Native Win32 interface for Win NT & 2000
Used output format : Internal WAV Routines
Sample format : 44.100 Hz; 16 Bit; Stereo
TOC of the extracted CD Track | Start | Length | Start sector | End sector
--1 | 0:00.00 | 1:44.18 | 0 | 7817 2 | 1:44.18 | 2:16.07 | 7818 | 18024 3 | 4:00.25 | 2:27.11 | 18025 | 29060 4 | 6:27.36 | 2:18.16 | 29061 | 39426 5 | 8:45.52 | 2:46.08 | 39427 | 51884 6 | 11:31.60 | 2:17.50 | 51885 | 62209 7 | 13:49.35 | 2:50.73 | 62210 | 75032 8 | 16:40.33 | 1:55.43 | 75033 | 83700 9 | 18:36.01 | 2:06.23 | 83701 | 93173
10 | 20:42.24 | 2:13.68 | 93174 | 103216
11 | 22:56.17 | 2:28.67 | 103217 | 114383
12 | 25:25.09 | 2:31.55 | 114384 | 125763
13 | 27:56.64 | 2:06.33 | 125764 | 135246
14 | 30:03.22 | 1:52.28 | 135247 | 143674
Range status and errors
Selected range Filename F:\_AvaxHome__Rehabilly\The New Piccadillys - Introducing... The New Piccadillys (2014) [Japanese Pressing]\The New Piccadillys - Introducing The New Piccadillys (MSCD-071).wav Peak level 99.9 %
Extraction speed 7.1 X
Range quality 99.9 %
Test CRC 2C394322
Copy CRC 2C394322
Copy OK
No errors occurred
AccurateRip summary
Track 1 not present in database
Track 2 not present in database
Track 3 not present in database
Track 4 not present in database
Track 5 not present in database
Track 6 not present in database
Track 7 not present in database
Track 8 not present in database
Track 9 not present in database
Track 10 not present in database
Track 11 not present in database
Track 12 not present in database
Track 13 not present in database
Track 14 not present in database
None of the tracks are present in the AccurateRip database
End of status report
Log checksum 204D356E4D8080DA39D2F191FE3FE6C6912EA1DE6FEF689202892284A4DE4663
Recorded in MONO.
Read some additional info inside the booklet.
Original Release Date: September 19, 2014
Japanese Release: October 29, 2014
Label: Majestic Sound Records
Catalog No.: MSCD-071
Buy a premium to download file with fast speed
Rapidgator.net
thanks
http://rapidgator.net/file/5abdeed6237bfb5c52b880810dd81b44/ahp3p.NewPiccadillys214ITNP20GC.rar.html
http://rapidgator.net/file/61e1d7bd07bcfa116c6ca5fceaf6e50d/ahp3p.NewPiccadillys214ITNP798FC.rar.html

Direct Download

Tags: Piccadillys, Introducing, Piccadillys, Japanese, Pressing

The New Piccadillys - Introducing... The New Piccadillys (2014) [Japanese Pressing] 151116 Download via Hotfile Rapidshare Fileserve Megaupload & FileSonic, The New Piccadillys - Introducing... The New Piccadillys (2014) [Japanese Pressing] 151116 free torrent downloads included crack, serial, keygen.


Attention!Information

Members of Guest cannot leave comments.