Dark Moor - Project X (2015) [Limited Edition]

Download Now

Dark Moor - Project X (2015) [Limited Edition]

Dark Moor - Project X (2015)
2CD | EAC Rip | FLAC (Img) + Cue + Log ~ 524 Mb | MP3 CBR320 ~ 172 Mb
Scans (JPG, 600 dpi) ~ 98 Mb | RAR 5% Recovery
Symphonic Power Metal, Progressive Metal | Avalon #MICP-30063

"Dark Moor is a Spanish neo-classical metal and symphonic power metal band from Madrid. Formed in 1993, they produced three full-length albums before undergoing a line-up change in which three members left the band to form their own project, Dreamaker. Afterwards, the band continued under the same name, recruiting suitable replacements in time for their eponymous 2003 album. Since 2002, guitarist Enrik Garcia has been the band's sole remaining founding member. Project X is the 10th studio album by the Spanish power metal band Dark Moor, released on 6 November 2015 on Scarlet Records..."

Official Website | Wiki | Discogs | All Music
***************

Dark Moor - Project X (2015) [Limited Edition]

Track List CD1:

01. November 3023 [01:08]
02. Abduction [04:44]
03. Beyond The Stars [04:59]
04. Conspiracy Revealed [03:08]
05. I Want To Believe [05:01]
06. Bon Voyage! [06:19]
07. The Existence [04:08]
08. Imperial Earth [04:31]
09. Gabriel [04:15]
10. There's Something In The Skies [08:05]

Exact Audio Copy V1.0 beta 3 from 29. August 2011

EAC extraction logfile from 14. November 2015, 17:56

Dark Moor / Project X

Used drive : SlimtypeDVD A DS8A5SH Adapter: 0 ID: 0

Read mode : Secure
Utilize accurate stream : Yes
Defeat audio cache : Yes
Make use of C2 pointers : No

Read offset correction

: 6
Overread into Lead-In and Lead-Out : No
Fill up missing offset samples with silence : Yes
Delete leading and trailing silent blocks : No
Null samples used in CRC calculations : Yes
Used interface
: Installed external ASPI interface

Used output format : User Defined Encoder
Selected bitrate : 320 kBit/s
Quality : High
Add ID3 tag : No
Command line compressor : C:\Program Files (x86)\Exact Audio Copy\Flac\flac.exe
Additional command line options : -V -8 -T "Date=%year%" -T "Genre=%genre%" %source%

TOC of the extracted CD Track | Start | Length | Start sector | End sector
--1 | 0:00.00 | 1:07.29 | 0 | 5053 2 | 1:07.29 | 4:43.20 | 5054 | 26298 3 | 5:50.49 | 4:58.01 | 26299 | 48649 4 | 10:48.50 | 3:07.01 | 48650 | 62675 5 | 13:55.51 | 5:00.28 | 62676 | 85203 6 | 18:56.04 | 6:18.41 | 85204 | 113594 7 | 25:14.45 | 4:07.03 | 113595 | 132122 8 | 29:21.48 | 4:30.36 | 132123 | 152408 9 | 33:52.09 | 4:14.50 | 152409 | 171508
10 | 38:06.59 | 8:04.46 | 171509 | 207854

Range status and errors

Selected range Filename D:\My Music\Dark Moor - 2015 Project X (Japanese Edition)\CD1\Dark Moor - Project X.wav Peak level 100.0 %
Extraction speed 1.7 X
Range quality 100.0 %
Test CRC 2301B34B
Copy CRC 2301B34B
Copy OK

No errors occurred


AccurateRip summary

Track 1 not present in database
Track 2 not present in database
Track 3 not present in database
Track 4 not present in database
Track 5 not present in database
Track 6 not present in database
Track 7 not present in database
Track 8 not present in database
Track 9 not present in database
Track 10 not present in database

None of the tracks are present in the AccurateRip database

End of status report

==== Log checksum 1EF0945B0A2E2D876A4CCDF4B366A0EF139E87F7AFE5CA31C89BDE86B2C8DF32 ====

foobar2000 1.2.6 / Dynamic Range Meter 1.1.1
log date: 2015-11-14 20:48:41

Analyzed: Dark Moor / Project X

DR Peak RMS Duration Track

DR10 -0.33 dB -14.62 dB 1:07 01-November 3023
DR7 0.00 dB -7.47 dB 4:43 02-Abduction
DR7 0.00 dB -8.07 dB 4:58 03-Beyond The Stars
DR7 0.00 dB -8.02 dB 3:07 04-Conspiracy Revealed
DR8 0.00 dB -10.98 dB 5:00 05-I Want To Believe
DR7 0.00 dB -7.57 dB 6:19 06-Bon Voyage!
DR7 0.00 dB -7.78 dB 4:07 07-The Existence
DR6 0.00 dB -8.96 dB 4:30 08-Imperial Earth
DR7 0.00 dB -7.44 dB 4:15 09-Gabriel
DR7 0.00 dB -8.91 dB 8:05 10-There's Something In The Skies

Number of tracks: 10
Official DR value: DR7

Samplerate: 44100 Hz
Channels: 2
Bits per sample: 16
Bitrate: 969 kbps
Codec: FLAC

[CUETools log; Date: 14.11.2015 20:48:40; Version: 2.1.5]
[CTDB TOCID: acvyWFxcIB5ycBVxpWsRcLNTHEk-] found.
Track | CTDB Status
1 | (2/2) Accurately ripped
2 | (2/2) Accurately ripped
3 | (2/2) Accurately ripped
4 | (2/2) Accurately ripped
5 | (2/2) Accurately ripped
6 | (2/2) Accurately ripped
7 | (2/2) Accurately ripped
8 | (2/2) Accurately ripped
9 | (2/2) Accurately ripped
10 | (2/2) Accurately ripped
[AccurateRip ID: 000f573e-007f28df-800ad30a] disk not present in database.

Track Peak [ CRC32 ] [W/O NULL] [ LOG ]
-- 100,0 [2301B34B] [E0BEF602] CRC32
01 96,2 [893C3605] [4313EE7C]
02 100,0 [59D45B6B] [2A8F8FD3]
03 100,0 [D8AD8F87] [DCE8D3C6]
04 100,0 [9939EC7D] [263BB16D]
05 100,0 [01D12477] [D49F8955]
06 100,0 [6F1B81E4] [AC7266F3]
07 100,0 [5EC6A419] [9A278F56]
08 100,0 [512380C1] [E71CB2F7]
09 100,0 [42D53E7B] [561AD9F5]
10 100,0 [69EC6F96] [9BDFA640]

Dark Moor - Project X (2015) [Limited Edition]

Track List CD2:

01. In The Heart Of Stone (Re-recorded) [04:41]
02. Maid Of Orleans (Re-recorded) [05:04]
03. Nevermore (Re-recorded) [04:47]
04. A New World (Re-recorded) [05:55]
05. Somewhere In Dreams (Re-recorded) [04:51]

Exact Audio Copy V1.0 beta 3 from 29. August 2011

EAC extraction logfile from 14. November 2015, 18:15

Dark Moor / Project X (Bonus CD)

Used drive : SlimtypeDVD A DS8A5SH Adapter: 0 ID: 0

Read mode : Secure
Utilize accurate stream : Yes
Defeat audio cache : Yes
Make use of C2 pointers : No

Read offset correction

: 6
Overread into Lead-In and Lead-Out : No
Fill up missing offset samples with silence : Yes
Delete leading and trailing silent blocks : No
Null samples used in CRC calculations : Yes
Used interface
: Installed external ASPI interface

Used output format : User Defined Encoder
Selected bitrate : 320 kBit/s
Quality : High
Add ID3 tag : No
Command line compressor : C:\Program Files (x86)\Exact Audio Copy\Flac\flac.exe
Additional command line options : -V -8 -T "Date=%year%" -T "Genre=%genre%" %source%

TOC of the extracted CD Track | Start | Length | Start sector | End sector
--1 | 0:00.00 | 4:40.22 | 0 | 21021 2 | 4:40.22 | 5:03.30 | 21022 | 43776 3 | 9:43.52 | 4:46.14 | 43777 | 65240 4 | 14:29.66 | 5:54.10 | 65241 | 91800 5 | 20:24.01 | 4:50.45 | 91801 | 113595

Range status and errors

Selected range Filename D:\My Music\Dark Moor - 2015 Project X (Japanese Edition)\CD2\Dark Moor - Project X (Bonus CD).wav Peak level 100.0 %
Extraction speed 3.6 X
Range quality 100.0 %
Test CRC 14A49449
Copy CRC 14A49449
Copy OK

No errors occurred


AccurateRip summary

Track 1 not present in database
Track 2 not present in database
Track 3 not present in database
Track 4 not present in database
Track 5 not present in database

None of the tracks are present in the AccurateRip database

End of status report

==== Log checksum 56CDC00E718102965E46E56CB9451435792B307669885A6030933DA23C6E7698 ====

foobar2000 1.2.6 / Dynamic Range Meter 1.1.1
log date: 2015-11-14 20:50:11

Analyzed: Dark Moor / Project X (Bonus CD)

DR Peak RMS Duration Track

DR8 -0.20 dB -8.70 dB 4:40 01-In The Heart Of Stone (Re-recorded)
DR8 0.00 dB -8.43 dB 5:03 02-Maid Of Orleans (Re-recorded)
DR8 -0.15 dB -8.62 dB 4:46 03-Nevermore (Re-recorded)
DR8 -0.10 dB -8.58 dB 5:54 04-A New World (Re-recorded)
DR8 -0.13 dB -8.89 dB 4:51 05-Somewhere In Dreams (Re-recorded)

Number of tracks: 5
Official DR value: DR8

Samplerate: 44100 Hz
Channels: 2
Bits per sample: 16
Bitrate: 982 kbps
Codec: FLAC

[CUETools log; Date: 14.11.2015 20:50:02; Version: 2.1.5]
[CTDB TOCID: NxLnNm_sgu2hGMBmV46xDiqkrYM-] found.
Track | CTDB Status
1 | (2/2) Accurately ripped
2 | (2/2) Accurately ripped
3 | (2/2) Accurately ripped
4 | (2/2) Accurately ripped
5 | (2/2) Accurately ripped
[AccurateRip ID: 00051e4d-00180809-3b05ea05] disk not present in database.

Track Peak [ CRC32 ] [W/O NULL] [ LOG ]
-- 100,0 [14A49449] [3340C350] CRC32
01 97,7 [FE616370] [42126336]
02 100,0 [63CA4381] C59F36A
03 98,3 B1C2378 [1B5E97BB]
04 98,8 [AFD75CA1] [E9A7C8A4]
05 98,4 [E5C11C68] [5D074856]

Dark Moor - Project X (2015) [Limited Edition]



(All below links are interchangable. No password)
Buy Premium To Support Me & Get Resumable Support & Max Speed


Direct Download

Tags: Project, Limited

Dark Moor - Project X (2015) [Limited Edition] Download via Hotfile Rapidshare Fileserve Megaupload & FileSonic, Dark Moor - Project X (2015) [Limited Edition] free torrent downloads included crack, serial, keygen.


Attention!Information

Members of Guest cannot leave comments.