Rick James - Cold Blooded (1983) [2013, Japanese Reissue]

Download Now

Rick James - Cold Blooded (1983) [2013, Japanese Reissue]

Rick James - Cold Blooded (1983) [2013, Japanese Reissue]
R&B, Soul/Funk | EAC Rip | FLAC, Img+CUE + LOG + Full Scans-600dpi (JPEG) | 40:01 Min | 292,89 Mb
Label: USM Japan (Japan) | Released: 2013, November, 20

"
Cold Blooded is a 1983 Rick James album, released on the Gordy Records imprint of Motown Records. The title track was written with actress Linda Blair in mind, whom Rick was dating at the time.
"

Rick James - Cold Blooded (1983) [2013, Japanese Reissue]

Rick James - Cold Blooded (1983) [2013, Japanese Reissue]


Release of the album: 1983, August, 5 [LP Gordy, Cat.# 6043GL, USA]
Release of this CD: 2013, November, 20 [CD USM Japan (Japan), Cat.# UICY-75865 / UPC: 4988005783240]
℗ & © 1983 Motown Records
Marketed & Distributed by UNIVERSAL MUSIC LLC.
Manufactured by USM JAPAN, A UNIVERSAL MUSIC COMPANY.


Producer: Rick James
Photography By [Cover]: Ron Slenzak

Backing Vocals - LaMorris Payne, Levi Ruffin, Rick James, William Rhinehart


Tracklist:

01. "U Bring The Freak Out" (04:07)
(Rick James)
02. "Cold Blooded'" (05:59)
(Rick James)
03. "Ebony Eyes" (feat. Smokey Robinson) (05:09)
(Rick James)
04. "1, 2, 3 (U, Her And Me)" (04:08)
(Rick James)
05. "Doin' It" (05:04)
(Rick James)
06. "New York Town" (Vocals [Taxi] - Lou Rose) (04:01)
(Rick James)
07. "P.I.M.P. The S.I.M.P." (feat. Grandmaster Flash) (04:33)
(Rick James)
08. "Tell Me (What You Want)" (Vocals - Billy Dee Williams) (05:08)
(Rick James)
09. "Unity" (01:52)
(Rick James)

Exact Audio Copy V1.0 beta 3 from 29. August 2011

EAC extraction logfile from 24. February 2014, 22:11

Rick James / Cold Blooded

Used drive : ATAPI DVD DW 8X16X8X16 Adapter: 0 ID: 2

Read mode : Secure
Utilize accurate stream : Yes
Defeat audio cache : Yes
Make use of C2 pointers : No

Read offset correction

: 618
Overread into Lead-In and Lead-Out : No
Fill up missing offset samples with silence : Yes
Delete leading and trailing silent blocks : No
Null samples used in CRC calculations : Yes
Used interface
: Native Win32 interface for Win NT & 2000

Used output format : Internal WAV Routines
Sample format : 44.100 Hz; 16 Bit; Stereo

TOC of the extracted CD Track | Start | Length | Start sector | End sector
--1 | 0:00.00 | 4:07.30 | 0 | 18554 2 | 4:07.30 | 5:59.25 | 18555 | 45504 3 | 10:06.55 | 5:09.06 | 45505 | 68685 4 | 15:15.61 | 4:07.58 | 68686 | 87268 5 | 19:23.44 | 5:04.29 | 87269 | 110097 6 | 24:27.73 | 4:01.12 | 110098 | 128184 7 | 28:29.10 | 4:32.67 | 128185 | 148651 8 | 33:02.02 | 5:07.40 | 148652 | 171716 9 | 38:09.42 | 1:52.25 | 171717 | 180141

Range status and errors

Selected range Filename C:\BlondStyle\Rick James - Cold Blooded.wav Peak level 100.0 %
Extraction speed 7.7 X
Range quality 100.0 %
Test CRC A738ACBE
Copy CRC A738ACBE
Copy OK

No errors occurred


AccurateRip summary

Track 1 accurately ripped (confidence 5) [79D5A92F] (AR v2)
Track 2 accurately ripped (confidence 5) [3CD5A6F1] (AR v2)
Track 3 accurately ripped (confidence 5) [5FF48D13] (AR v2)
Track 4 accurately ripped (confidence 5) [2F5D6191] (AR v2)
Track 5 accurately ripped (confidence 5) [97B381D4] (AR v2)
Track 6 accurately ripped (confidence 5) [DFAD898D] (AR v2)
Track 7 accurately ripped (confidence 5) [13819AEB] (AR v2)
Track 8 accurately ripped (confidence 5) [FE71F933] (AR v2)
Track 9 accurately ripped (confidence 5) [A4C4DE0B] (AR v2)

All tracks accurately ripped

End of status report

==== Log checksum D712405A409F249B49DF1EDFD1E19EC8B302943385BCDE48D0CF401E685EFE79 ====

foobar2000 1.3.7 / Dynamic Range Meter 1.1.1
log date: 2015-11-15 18:03:27

Analyzed: Rick James / Cold Blooded

DR Peak RMS Duration Track

DR14 0.00 dB -15.69 dB 4:07 01-U Bring The Freak Out
DR15 0.00 dB -17.57 dB 5:59 02-Cold Blooded
DR12 0.00 dB -15.14 dB 5:09 03-Ebony Eyes
DR14 0.00 dB -15.68 dB 4:08 04-1, 2, 3 (U, Her And Me)
DR14 0.00 dB -15.60 dB 5:04 05-Doin' It
DR14 0.00 dB -16.00 dB 4:01 06-New York Town
DR14 0.00 dB -15.84 dB 4:33 07-P.I.M.P. The S.I.M.P.
DR15 -0.19 dB -17.99 dB 5:08 08-Tell Me (What You Want)
DR14 -3.64 dB -24.03 dB 1:52 09-Unity

Number of tracks: 9
Official DR value: DR14

Samplerate: 44100 Hz
Channels: 2
Bits per sample: 16
Bitrate: 866 kbps
Codec: FLAC



password: BlondStyle


DOWNLOAD LINKS:
Buy Premium To Support Me & Get Resumable Support & Max Speed


Links are Interchangeable - No Password - Single Extraction

Direct Download

Tags: Blooded, Japanese, Reissue

Rick James - Cold Blooded (1983) [2013, Japanese Reissue] Download via Hotfile Rapidshare Fileserve Megaupload & FileSonic, Rick James - Cold Blooded (1983) [2013, Japanese Reissue] free torrent downloads included crack, serial, keygen.


Attention!Information

Members of Guest cannot leave comments.