Starbuck - Moonlight Feels Right (1976) + Rock 'n' Roll Rocket (1977) 2LP in 1CD, 2009

Download Now

Starbuck - Moonlight Feels Right (1976) + Rock 'n' Roll Rocket (1977) 2LP in 1CD, 2009

Starbuck - Moonlight Feels Right (1976) + Rock 'n' Roll Rocket (1977) 2LP in 1CD, 2009
EAC | FLAC | Image (Cue&Log) ~ 544 Mb (incl 5%) | Mp3 (CBR320) ~ 202 Mb (incl 5%) | Scans included
Genre: Pop Rock, Soft Rock, R&B | Label: Broadside Records | # STERN 2 | Time: 01:17:37

"2009 digitally re-mastered two-for from this Atlanta-based '70s outfit containing a pair of their albums on one CD (1976's Moonlight Feels Right and '77's Rock 'N' Roll Rocket) alongside a few rare bonus tracks added for good measure. This disc the first ever UK/European CD release of either of these classic albums. The first of the two albums contains their big hit and ever constant radio staple 'Moonlight Feels Right' - which has sold over 3 million copies - moreover, it has the finest marimba solo ever committed to seven inch vinyl! The great Starbuck name has been sullied in the past by a severe plague of naughty bootlegs and unoriginal recordings, but rest assured, our stuff is 100% the real deal."

"Starbuck is one of the rare '70s pop oddities that lives up to its one-hit wonder, delivering music every bit as beguiling and strange as that hit. For Starbuck, that one hit was 1976's glistening synth-and-marimba sensation "Moonlight Feels Right," a slick slice of soft rock that captures the mid-'70s in all its feathered, polyester glory, but the remarkable thing is that their full-length debut -- naturally also titled Moonlight Feels Right -- follows through on its smooth promise, offering another nine gauchely bewitching soft pop tunes. A certain amount of cheese comes with this territory, and Starbuck has some of the silliest in memory: a swinging ode to "Lash LaRue," a stiff bit of white-boy funk on "Working My Heart to the Bone" (just like you're "picking on a chicken"), the chant-along chorus of "I'm Crazy." But even at their silliest, they're still tuneful, fusing attractive elements of Steely Dan and 10cc while leaving behind guitars, and when the goofiness is toned down, the group offers some pure pop pleasure, particularly in the opening "I Got to Know," "Lucky Man," and "Moonlight Feels Right," which remains strangely timeless even as it is inextricably tied to its time. And that's appropriate -- Starbuck is a thoroughly modern band circa 1976, which also means that their appeal lies in both their melody and cheese, and Moonlight Feels Right excels in both.

Rock 'N' Roll Rocket, Starbuck's sequel to their 1976 hit Moonlight Feels Right, is firmly within the tradition of their debut: it's smooth, tuneful soft rock, built on synths with guitars swapped out for marimbas. It's the same style, but the emphasis has shifted slightly, with the group pushing discofied rhythms over louche melodies, which makes the album a little less memorable, even if it retains a considerable amount of period charm with its laser-blaster synthesizers and percolating rhythms, and it's hard not to find a bit of camp charm in the subdued swagger of "Don't You Know How to Love a Lady," the disco fantasia of "Everybody Be Dancin'," and the perhaps tongue-in-cheek SoCal breeze of "Benny Bought the Big One." Cherry Red's two-fer of Moonlight Feels Right/Rock 'N' Roll Rocket contains two bonus tracks: "One of These Mornings" and "Gimme a Break."

Review by Stephen Thomas Erlewine, Allmusic.com
"




Tracklist:

Moonlight Feels Right (1976):

01. I Got To Know (03:11)
02. Drop A Little Rock (02:52)
03. Lash Larue (02:49)
04. The Slower You Go (The Longer It Lasts) (02:48)
05. Moonlight Feels Right (03:38)
06. I'm Crazy (03:15)
07. So The Night Goes (03:06)
08. Working My Heart To The Bone (02:27)
09. Lucky Man (03:33)
10. Bordello Bordeaux (04:32)

Rock 'n' Roll Rocket (1977):

11. Everybody Be Dancin' (03:49)
12. Call Me (03:15)
13. City Of The Future (03:28)
14. Fat Boy (03:14)
15. Little Bird (05:19)
16. Sunset Eyes (04:08)
17. A Fool In Line (03:33)
18. Don't You Know How To Love A Lady (02:41)
19. Benny Bought The Big One (03:25)
20. Rock 'N' Roll Rocket-Little Bird (Reprise) (05:12)
21. One Of These Mornings (03:26)
22. Gimme A Break (03:47)


Exact Audio Copy V1.0 beta 3 from 29. August 2011

Отчёт EAC об извлечении, выполненном 29. января 2014, 23:23

Starbuck / Starbuck - "Moonlight Feels Right/Rock 'N' Roll Rocket" (Stern 2)

Дисковод: Optiarc DVD RW AD-7280S Adapter: 3 ID: 0

Режим чтения : Достоверность
Использование точного потока : Да
Отключение кэша аудио : Да
Использование указателей C2 : Нет

Коррекция смещения при чтении : 48
Способность читать области Lead-in и Lead-out : Нет
Заполнение пропущенных сэмплов тишиной : Да
Удаление блоков с тишиной в начале и конце : Нет
При вычислениях CRC использовались нулевые сэмплы : Да
Интерфейс : Встроенный Win32-интерфейс для Win NT/2000

Выходной формат : Пользовательский кодировщик
Выбранный битрейт : 128 kBit/s
Качество : Высокий
Добавление ID3-тега : Нет
Утилита сжатия : C:\Program Files\EAC\FLAC\FLAC.EXE
Дополнительные параметры : -V -8 -T "Date=%year%" -T "Genre=%genre%" %source%

TOC извлечённого CD Трек | Старт | Длительность | Начальный сектор | Конечный сектор

1 | 0:00.00 | 3:11.10 | 0 | 14334
2 | 3:11.10 | 2:52.46 | 14335 | 27280
3 | 6:03.56 | 2:49.24 | 27281 | 39979
4 | 8:53.05 | 2:48.30 | 39980 | 52609
5 | 11:41.35 | 3:38.26 | 52610 | 68985
6 | 15:19.61 | 3:15.61 | 68986 | 83671
7 | 18:35.47 | 3:06.43 | 83672 | 97664
8 | 21:42.15 | 2:27.08 | 97665 | 108697
9 | 24:09.23 | 3:33.71 | 108698 | 124743
10 | 27:43.19 | 4:32.46 | 124744 | 145189
11 | 32:15.65 | 3:49.41 | 145190 | 162405
12 | 36:05.31 | 3:15.61 | 162406 | 177091
13 | 39:21.17 | 3:28.21 | 177092 | 192712
14 | 42:49.38 | 3:14.13 | 192713 | 207275
15 | 46:03.51 | 5:19.52 | 207276 | 231252
16 | 51:23.28 | 4:08.04 | 231253 | 249856
17 | 55:31.32 | 3:33.21 | 249857 | 265852
18 | 59:04.53 | 2:41.33 | 265853 | 277960
19 | 61:46.11 | 3:25.39 | 277961 | 293374
20 | 65:11.50 | 5:12.13 | 293375 | 316787
21 | 70:23.63 | 3:26.45 | 316788 | 332282
22 | 73:50.33 | 3:47.13 | 332283 | 349320

Характеристики диапазона извлечения и сообщения об ошибках

Выбранный диапазон Имя файла D:\Torrenz\Starbuck\1_2\Starbuck - ''Moonlight Feels Right,Rock 'N' Roll Rocket''.wav Пиковый уровень 97.7 %
Скорость извлечения 4.6 X
Качество диапазона 99.9 %
CRC теста 642C2E1F
CRC копии 642C2E1F
Копирование... OK

Ошибок не произошло


AccurateRip: сводка

Трек 1 : извлечено точно (доверие 3) [0E78F5DC] (AR v2)
Трек 2 : извлечено точно (доверие 3) 6988367 (AR v2)
Трек 3 : извлечено точно (доверие 3) [5D492C8D] (AR v2)
Трек 4 : извлечено точно (доверие 3) [5E97C233] (AR v2)
Трек 5 : извлечено точно (доверие 3) [9687E826] (AR v2)
Трек 6 : извлечено точно (доверие 3) [62A22EE7] (AR v2)
Трек 7 : извлечено точно (доверие 3) [7DDF7847] (AR v2)
Трек 8 : извлечено точно (доверие 3) [814FAF58] (AR v2)
Трек 9 : извлечено точно (доверие 3) D5DD6A4 (AR v2)
Трек 10 : извлечено точно (доверие 3) [D5B3D18E] (AR v2)
Трек 11 : извлечено точно (доверие 3) [6BB570CB] (AR v2)
Трек 12 : извлечено точно (доверие 3) [059B5D7D] (AR v2)
Трек 13 : извлечено точно (доверие 3) [E38D1CC6] (AR v2)
Трек 14 : извлечено точно (доверие 3) [9958603B] (AR v2)
Трек 15 : извлечено точно (доверие 3) [C1858FD5] (AR v2)
Трек 16 : извлечено точно (доверие 3) [F1E71D43] (AR v2)
Трек 17 : извлечено точно (доверие 3) [4070209B] (AR v2)
Трек 18 : извлечено точно (доверие 3) [669D35D7] (AR v2)
Трек 19 : извлечено точно (доверие 3) [68D3DCDD] (AR v2)
Трек 20 : извлечено точно (доверие 3) [9C90473E] (AR v2)
Трек 21 : извлечено точно (доверие 3) [7508211E] (AR v2)
Трек 22 : извлечено точно (доверие 3) [3E26843B] (AR v2)

Все треки извлечены точно

Конец отчёта

==== Контрольная сумма отчёта A3577013838A89E7D0814E76A1ACE786164F0ECAC30C485D6FA346BBB1BB0C06 ====

foobar2000 1.3.8 / Dynamic Range Meter 1.1.1
log date: 2015-11-16 20:35:29

Analyzed: Starbuck / Starbuck - 'Moonlight Feels Right/Rock 'N' Roll Rocket' (Stern 2)

DR Peak RMS Duration Track

DR8 -0.20 dB -9.98 dB 3:11 01-I Got To Know
DR9 -0.20 dB -11.20 dB 2:53 02-Drop A Little Rock
DR8 -0.20 dB -9.84 dB 2:49 03-Lash Larue
DR9 -0.20 dB -10.44 dB 2:48 04-The Slower You Go (The Longer It Lasts)
DR7 -0.20 dB -9.09 dB 3:38 05-Moonlight Feels Right
DR10 -0.20 dB -11.60 dB 3:16 06-I'm Crazy
DR8 -0.20 dB -9.69 dB 3:07 07-So The Night Goes
DR7 -0.20 dB -9.28 dB 2:27 08-Working My Heart To The Bone
DR8 -0.20 dB -9.88 dB 3:34 09-Lucky Man
DR8 -0.20 dB -9.35 dB 4:33 10-Bordello Bordeaux
DR8 -0.20 dB -9.65 dB 3:50 11-Everybody Be Dancin'
DR9 -0.20 dB -9.91 dB 3:16 12-Call Me
DR8 -0.20 dB -10.04 dB 3:28 13-City Of The Future
DR9 -0.20 dB -10.22 dB 3:14 14-Fat Boy
DR8 -0.20 dB -9.87 dB 5:20 15-Little Bird
DR9 -0.20 dB -10.52 dB 4:08 16-Sunset Eyes
DR9 -0.20 dB -9.96 dB 3:33 17-A Fool In Line
DR7 -0.20 dB -8.06 dB 2:41 18-Don't You Know How To Love A Lady
DR9 -0.20 dB -11.42 dB 3:26 19-Benny Bought The Big One
DR8 -0.20 dB -10.48 dB 5:12 20-Rock 'N' Roll Rocket-Little Bird (Reprise)
DR7 -0.20 dB -8.64 dB 3:27 21-One Of These Mornings
DR8 -0.20 dB -10.55 dB 3:47 22-Gimme A Break

Number of tracks: 22
Official DR value: DR8

Samplerate: 44100 Hz
Channels: 2
Bits per sample: 16
Bitrate: 906 kbps
Codec: FLAC

Starbuck - Moonlight Feels Right (1976) + Rock 'n' Roll Rocket (1977) 2LP in 1CD, 2009

Starbuck - Moonlight Feels Right (1976) + Rock 'n' Roll Rocket (1977) 2LP in 1CD, 2009

All thanks to original releaser - osv448
Password: designol

DOWNLOAD LINKS:


No Password

Direct Download

Tags: Starbuck, Moonlight, Rocket

Starbuck - Moonlight Feels Right (1976) + Rock 'n' Roll Rocket (1977) 2LP in 1CD, 2009 Download via Hotfile Rapidshare Fileserve Megaupload & FileSonic, Starbuck - Moonlight Feels Right (1976) + Rock 'n' Roll Rocket (1977) 2LP in 1CD, 2009 free torrent downloads included crack, serial, keygen.


Attention!Information

Members of Guest cannot leave comments.