Beastie Boys - 1999-05-07 Wembley Arena. London, En (1999)

Download Now

Beastie Boys - 1999-05-07 Wembley Arena. London, En (1999)

Beastie Boys - 1999-05-07 Wembley Arena. London, En (1999)
EAC Rip | FLAC with CUE and log | scan | 252 mb
MP3 CBR 320kbps | RAR | 93 mb
Genre: hip-hop, punk, hardcore, soul, funk

1999-05-07 Wembley Arena. London, En is a 1999 bootleg CD by the Beastie Boys. It was recorded live at Wembley Arena in London, England on 7 May, 1999.
01. Super Disco Breakin'
02. Beastie Boys
03. Sabrosa
04. The Skills To Pay The Bills
05. Song For The Man
06. Egg Raid On Mojo
07. The Negotiation Limerick File
08. So Whatcha Want
09. Something's Got To Give
10. I Want Some
11. Heart Attack Man
12. Remote Control
13. Sure Shot
14. 3 MC's And 1 DJ
15. Intergalactic
16. Sabotage

Exact Audio Copy V1.1 from 23. June 2015

EAC extraction logfile from 16. November 2015, 10:45

Beastie Boys / 1999-05-07 Wembley Arena. London, En

Used drive : TEAC DVD-ROM DV-28SW Adapter: 1 ID: 0

Read mode : Secure
Utilize accurate stream : Yes
Defeat audio cache : Yes
Make use of C2 pointers : No

Read offset correction

: 6
Overread into Lead-In and Lead-Out : No
Fill up missing offset samples with silence : Yes
Delete leading and trailing silent blocks : No
Null samples used in CRC calculations : Yes
Used interface
: Native Win32 interface for Win NT & 2000
Gap handling
: Left out

Used output format : Internal WAV Routines
Sample format : 44.100 Hz; 16 Bit; Stereo

TOC of the extracted CD Track | Start | Length | Start sector | End sector
--1 | 0:00.00 | 1:41.33 | 0 | 7607 2 | 1:41.33 | 0:54.24 | 7608 | 11681 3 | 2:35.57 | 3:19.43 | 11682 | 26649 4 | 5:55.25 | 2:11.74 | 26650 | 36548 5 | 8:07.24 | 2:55.29 | 36549 | 49702 6 | 11:02.53 | 1:23.47 | 49703 | 55974 7 | 12:26.25 | 1:45.46 | 55975 | 63895 8 | 14:11.71 | 3:28.03 | 63896 | 79498 9 | 17:39.74 | 4:02.65 | 79499 | 97713
10 | 21:42.64 | 1:53.42 | 97714 | 106230
11 | 23:36.31 | 2:29.70 | 106231 | 117475
12 | 26:06.26 | 2:35.74 | 117476 | 129174
13 | 28:42.25 | 4:14.36 | 129175 | 148260
14 | 32:56.61 | 2:55.71 | 148261 | 161456
15 | 35:52.57 | 3:07.28 | 161457 | 175509
16 | 39:00.10 | 2:51.54 | 175510 | 188388

Track 1 Filename C:\My Documents\My FLAC\Beastie Boys - 1999-05-07 Wembley Arena. London, En (1999) [FLAC]\01 - Super Disco Breakin'.wav Pre-gap length 0:00:02.00 Peak level 98.1 %
Extraction speed 2.3 X
Track quality 100.0 %
Test CRC 53695168
Copy CRC 53695168
Track not present in AccurateRip database
Copy OK

Track 2 Filename C:\My Documents\My FLAC\Beastie Boys - 1999-05-07 Wembley Arena. London, En (1999) [FLAC]\02 - Beastie Boys.wav Peak level 84.0 %
Extraction speed 1.9 X
Track quality 100.0 %
Test CRC 3A3BFD68
Copy CRC 3A3BFD68
Track not present in AccurateRip database
Copy OK

Track 3 Filename C:\My Documents\My FLAC\Beastie Boys - 1999-05-07 Wembley Arena. London, En (1999) [FLAC]\03 - Sabrosa.wav Peak level 95.1 %
Extraction speed 2.9 X
Track quality 100.0 %
Test CRC D6539F02
Copy CRC D6539F02
Track not present in AccurateRip database
Copy OK

Track 4 Filename C:\My Documents\My FLAC\Beastie Boys - 1999-05-07 Wembley Arena. London, En (1999) [FLAC]\04 - The Skills To Pay The Bills.wav Peak level 97.3 %
Extraction speed 2.8 X
Track quality 100.0 %
Test CRC 407070F7
Copy CRC 407070F7
Track not present in AccurateRip database
Copy OK

Track 5 Filename C:\My Documents\My FLAC\Beastie Boys - 1999-05-07 Wembley Arena. London, En (1999) [FLAC]\05 - Song For The Man.wav Peak level 95.1 %
Extraction speed 3.1 X
Track quality 100.0 %
Test CRC B84F3DD4
Copy CRC B84F3DD4
Track not present in AccurateRip database
Copy OK

Track 6 Filename C:\My Documents\My FLAC\Beastie Boys - 1999-05-07 Wembley Arena. London, En (1999) [FLAC]\06 - Egg Raid On Mojo.wav Peak level 89.1 %
Extraction speed 1.9 X
Track quality 99.8 %
Test CRC 8274CD8A
Copy CRC 8274CD8A
Track not present in AccurateRip database
Copy OK

Track 7 Filename C:\My Documents\My FLAC\Beastie Boys - 1999-05-07 Wembley Arena. London, En (1999) [FLAC]\07 - The Negotiation Limerick File.wav Peak level 96.6 %
Extraction speed 2.9 X
Track quality 100.0 %
Test CRC AE29D3CF
Copy CRC AE29D3CF
Track not present in AccurateRip database
Copy OK

Track 8 Filename C:\My Documents\My FLAC\Beastie Boys - 1999-05-07 Wembley Arena. London, En (1999) [FLAC]\08 - So Whatcha Want.wav Peak level 96.8 %
Extraction speed 3.5 X
Track quality 100.0 %
Test CRC 0D360B66
Copy CRC 0D360B66
Track not present in AccurateRip database
Copy OK

Track 9 Filename C:\My Documents\My FLAC\Beastie Boys - 1999-05-07 Wembley Arena. London, En (1999) [FLAC]\09 - Something's Got To Give.wav Peak level 90.5 %
Extraction speed 3.9 X
Track quality 100.0 %
Test CRC 8DBA8299
Copy CRC 8DBA8299
Track not present in AccurateRip database
Copy OK

Track 10 Filename C:\My Documents\My FLAC\Beastie Boys - 1999-05-07 Wembley Arena. London, En (1999) [FLAC]\10 - I Want Some.wav Peak level 99.9 %
Extraction speed 3.4 X
Track quality 100.0 %
Test CRC 4DCC3663
Copy CRC 4DCC3663
Track not present in AccurateRip database
Copy OK

Track 11 Filename C:\My Documents\My FLAC\Beastie Boys - 1999-05-07 Wembley Arena. London, En (1999) [FLAC]\11 - Heart Attack Man.wav Peak level 99.9 %
Extraction speed 3.8 X
Track quality 100.0 %
Test CRC DAE06B3B
Copy CRC DAE06B3B
Track not present in AccurateRip database
Copy OK

Track 12 Filename C:\My Documents\My FLAC\Beastie Boys - 1999-05-07 Wembley Arena. London, En (1999) [FLAC]\12 - Remote Control.wav Peak level 98.0 %
Extraction speed 3.9 X
Track quality 100.0 %
Test CRC 44823550
Copy CRC 44823550
Track not present in AccurateRip database
Copy OK

Track 13 Filename C:\My Documents\My FLAC\Beastie Boys - 1999-05-07 Wembley Arena. London, En (1999) [FLAC]\13 - Sure Shot.wav Peak level 97.6 %
Extraction speed 4.4 X
Track quality 100.0 %
Test CRC 87A033CD
Copy CRC 87A033CD
Track not present in AccurateRip database
Copy OK

Track 14 Filename C:\My Documents\My FLAC\Beastie Boys - 1999-05-07 Wembley Arena. London, En (1999) [FLAC]\14 - 3 MC's And 1 DJ.wav Peak level 99.4 %
Extraction speed 3.5 X
Track quality 99.9 %
Test CRC 0BD44BC0
Copy CRC 0BD44BC0
Track not present in AccurateRip database
Copy OK

Track 15 Filename C:\My Documents\My FLAC\Beastie Boys - 1999-05-07 Wembley Arena. London, En (1999) [FLAC]\15 - Intergalactic.wav Peak level 97.3 %
Extraction speed 4.4 X
Track quality 100.0 %
Test CRC 2EAAB7A9
Copy CRC 2EAAB7A9
Track not present in AccurateRip database
Copy OK

Track 16 Filename C:\My Documents\My FLAC\Beastie Boys - 1999-05-07 Wembley Arena. London, En (1999) [FLAC]\16 - Sabotage.wav Peak level 99.4 %
Extraction speed 4.5 X
Track quality 100.0 %
Test CRC C6B73826
Copy CRC C6B73826
Track not present in AccurateRip database
Copy OK

None of the tracks are present in the AccurateRip database

No errors occurred

End of status report

- CUETools DB Plugin V2.1.6

[CTDB TOCID: esxXzW0AmxxAa4_WzdkL3mP807g-] disk not present in database
Submit result: esxXzW0AmxxAa4_WzdkL3mP807g- has been uploaded

==== Log checksum 013645145ACBDE3E0D5BD892A2B4ADE83F6DB3710C6EE2B19961ECECA00EB94D ====

Beastie Boys - 1999-05-07 Wembley Arena. London, En (1999)

DOWNLOAD:
Buy Premium To Support Me & Get Resumable Support & Max Speed


Links are Interchangeable - No Password

Direct Download

Tags: Beastie, Wembley, London

Beastie Boys - 1999-05-07 Wembley Arena. London, En (1999) Download via Hotfile Rapidshare Fileserve Megaupload & FileSonic, Beastie Boys - 1999-05-07 Wembley Arena. London, En (1999) free torrent downloads included crack, serial, keygen.


Attention!Information

Members of Guest cannot leave comments.