Saltatio Mortis - Wer Wind Saet (2009)

Download Now

Saltatio Mortis - Wer Wind Saet (2009)

Saltatio Mortis - Wer Wind Saet (2009)
Metal | 1cd | EAC Rip | Flac + Cue + Log | covers
Napalm/Irond CD 09-1639 | rel: 2009 | 420Mb

In the wave of folk metal frenzy that has recently struck the metal scene, it seems peculiar that German folk fanatics Saltatio Mortis are unfamiliar to most. In their nine years of existence, they have released seven full-length albums, alongside one live album. ‘Wer Wind Sat' is dominated by an array of folk instruments including flutes, bagpipes, lutes, fiddles and lesser known instruments like the Indian wui, schalms and citterns to name a few.
The main concern is the dominance of the bagpipe which draws attention away from the guitars and drums, which never do anything phenomenal. Many of the songs are indiscernible with only the bagpipes doing something vastly different.
Naturally, the bagpipes echo Eluveitie (although Saltatio Mortis are older) but they do not have Eluveitie's growls or melodic death metal engravings. The vocals are standard but monotonous, although formidable female vocals appear on ‘Salome'.
Most of this album is filler with unconventional instruments doing something creative. Folk fans who are not concerned with repetition may enjoy this. ~metal-archives

Track listing
01. Ebenbild (5:14)
02. Salome (feat. Doro Pesch) (5:01)
03. La Jument de Michao (3:31)
04. Letzte Worte (4:30)
05. Das kalte Herz (3:58)
06. Rastlos (4:03)
07. Miststuck (4:26)
08. Tief in mir (4:29)
09. Aus Traumen gebaut (4:47)
10. Manus Manum Lavat (3:45)
11. Vergessene Gotter (3:48)
12. Wir saen den Wind (4:31)
~ (52:03)

Exact Audio Copy V1.0 beta 3 from 29. August 2011

EAC extraction logfile from 22. May 2014, 20:52

Saltatio Mortis / Wer Wind sät

Used drive : ASUS DRW-24B3LT Adapter: 3 ID: 1

Read mode : Secure
Utilize accurate stream : Yes
Defeat audio cache : Yes
Make use of C2 pointers : No

Read offset correction

: 6
Overread into Lead-In and Lead-Out : No
Fill up missing offset samples with silence : Yes
Delete leading and trailing silent blocks : No
Null samples used in CRC calculations : Yes
Used interface
: Native Win32 interface for Win NT & 2000

Used output format : User Defined Encoder
Selected bitrate : 1024 kBit/s
Quality : High
Add ID3 tag : No
Command line compressor : C:\Program Files (x86)\Exact Audio Copy\FLAC\FLAC.EXE
Additional command line options : -6 -V -T "ARTIST=%artist%" -T "TITLE=%title%" -T "ALBUM=%albumtitle%" -T "DATE=%year%" -T "TRACKNUMBER=%tracknr%" -T "GENRE=%genre%" -T "COMMENT=%comment%" -T "BAND=%albuminterpret%" -T "ALBUMARTIST=%albuminterpret%" -T "COMPOSER=%composer%" %haslyrics%--tag-from-file=LYRICS="%lyricsfile%"%haslyrics% -T "DISCNUMBER=%cdnumber%" -T "TOTALDISCS=%totalcds%" -T "TOTALTRACKS=%numtracks%" %hascover%--picture="%coverfile%"%hascover% %source% -o %dest%

TOC of the extracted CD Track | Start | Length | Start sector | End sector
--1 | 0:00.00 | 5:14.33 | 0 | 23582 2 | 5:14.33 | 5:00.56 | 23583 | 46138 3 | 10:15.14 | 3:31.15 | 46139 | 61978 4 | 13:46.29 | 4:30.28 | 61979 | 82256 5 | 18:16.57 | 3:57.74 | 82257 | 100105 6 | 22:14.56 | 4:02.46 | 100106 | 118301 7 | 26:17.27 | 4:25.59 | 118302 | 138235 8 | 30:43.11 | 4:28.66 | 138236 | 158401 9 | 35:12.02 | 4:47.07 | 158402 | 179933
10 | 39:59.09 | 3:44.49 | 179934 | 196782
11 | 43:43.58 | 3:47.63 | 196783 | 213870
12 | 47:31.46 | 4:31.03 | 213871 | 234198

Range status and errors

Selected range Filename E:\DARKABYSS\Saltatio Mortis - Wer Wind sät.wav Peak level 97.7 %
Extraction speed 8.6 X
Range quality 100.0 %
Test CRC AC0D893E
Copy CRC AC0D893E
Copy OK

No errors occurred


AccurateRip summary

Track 1 cannot be verified as accurate (confidence 8) [0C7F7A65], AccurateRip returned [6B9EA43A] (AR v2)
Track 2 cannot be verified as accurate (confidence 8) [7BFFD6C2], AccurateRip returned [4FEEC46C] (AR v2)
Track 3 cannot be verified as accurate (confidence 8) [A9B549FA], AccurateRip returned [6BB2B9F1] (AR v2)
Track 4 cannot be verified as accurate (confidence 8) [2BF10F4F], AccurateRip returned [AE9FC204] (AR v2)
Track 5 cannot be verified as accurate (confidence 8) 3C20280, AccurateRip returned [1505F86A] (AR v2)
Track 6 cannot be verified as accurate (confidence 8) [80C46655], AccurateRip returned [36A493F9] (AR v2)
Track 7 cannot be verified as accurate (confidence 8) [C55E9CD6], AccurateRip returned [2324A3A8] (AR v2)
Track 8 cannot be verified as accurate (confidence 8) [43AD8009], AccurateRip returned [1F077FF2] (AR v2)
Track 9 cannot be verified as accurate (confidence 8) [A218860D], AccurateRip returned [E2BEB64E] (AR v2)
Track 10 cannot be verified as accurate (confidence 8) D262C31, AccurateRip returned [741EE004] (AR v2)
Track 11 cannot be verified as accurate (confidence 8) BBB02A7, AccurateRip returned [EB108C58] (AR v2)
Track 12 cannot be verified as accurate (confidence 8) [A506C541], AccurateRip returned [79A924A9] (AR v2)

No tracks could be verified as accurate
You may have a different pressing from the one(s) in the database

End of status report

==== Log checksum ABD93F3390AC53559BCB090853B5DE7E1ED53125C4F0EB1F2511F0860911B205 ====

[CUETools log; Date: 2015.11.19. 16:23:25; Version: 2.1.5]
[CTDB TOCID: mSL3UhwVVhGLwUNQZX4a0eZeLXI-] found.
Track | CTDB Status
1 | (19/19) Accurately ripped
2 | (19/19) Accurately ripped
3 | (19/19) Accurately ripped
4 | (19/19) Accurately ripped
5 | (19/19) Accurately ripped
6 | (19/19) Accurately ripped
7 | (19/19) Accurately ripped
8 | (19/19) Accurately ripped
9 | (19/19) Accurately ripped
10 | (19/19) Accurately ripped
11 | (19/19) Accurately ripped
12 | (19/19) Accurately ripped
[AccurateRip ID: 0017b57f-00db6c01-a30c320c] found.
Track [ CRC | V2 ] Status
01 [459dc8a1|0c7f7a65] (00+00/15) No match
02 [5867321e|7bffd6c2] (00+00/15) No match
03 [fdb00ca5|a9b549fa] (00+00/15) No match
04 [c8b75288|2bf10f4f] (00+00/15) No match
05 [66e3e0c4|b3c20280] (00+00/15) No match
06 [d4f4807a|80c46655] (00+00/15) No match
07 [c5db8f37|c55e9cd6] (00+00/15) No match
08 [5d075c29|43ad8009] (00+00/15) No match
09 0775485|a218860d (00+00/15) No match
10 [f8f38c94|bd262c31] (00+00/15) No match
11 [8335c8a0|bbbb02a7] (00+00/15) No match
12 [5631405c|a506c541] (00+00/15) No match
Offsetted by 664:
01 55b4aed (05/15) Accurately ripped
02 [3155be06] (05/15) Accurately ripped
03 [76668075] (05/15) Accurately ripped
04 [346a0e80] (05/15) Accurately ripped
05 [9534a314] (05/15) Accurately ripped
06 [5bef67da] (05/15) Accurately ripped
07 [0843b127] (05/15) Accurately ripped
08 [20633671] (05/15) Accurately ripped
09 [e858c8b5] (05/15) Accurately ripped
10 [71ad5acc] (05/15) Accurately ripped
11 [75f78748] (05/15) Accurately ripped
12 [faff0720] (05/15) Accurately ripped

Track Peak [ CRC32 ] [W/O NULL] [ LOG ]
-- 97,7 [AC0D893E] [ADDEBB2B] CRC32
01 97,7 [80CE763A] [52F5F48D]
02 97,7 [63F97D6A] 79F18E1
03 97,7 [FCF2C960] [C9759DDD]
04 97,7 [66775ECA] 4A48A3C
05 97,7 [9D72ED4D] [F90FE59B]
06 97,7 [5024ADEF] [0A9EDD52]
07 97,7 [64AF7DBE] [76500DFE]
08 97,7 [391B9C44] [589D5298]
09 97,7 [910AD5F3] [230DCAFD]
10 97,7 [AB18A140] [723843DA]
11 97,7 [F1CEF3E2] [ED68F118]
12 97,7 [866636A2] [27B57AE4]

Thx to Troll-Santa
password: asd
DOWNLOAD
(Premium Recommended)


All above links are interchangable. No password

Direct Download

Tags: Saltatio, Mortis

Saltatio Mortis - Wer Wind Saet (2009) Download via Hotfile Rapidshare Fileserve Megaupload & FileSonic, Saltatio Mortis - Wer Wind Saet (2009) free torrent downloads included crack, serial, keygen.


Attention!Information

Members of Guest cannot leave comments.