World Trade - Euphoria (1995)

Download Now

World Trade - Euphoria (1995)

World Trade - Euphoria (1995)
EAC Rip | FLAC: Image+Cue+Log | 390 Mb | MP3 CBR 320 kbps | 141 Mb | Scans | Time: 58:08
Genre: Progressive Rock | Label: Magna Carta | Cat.№: 839 626-2

"World Trade is a world class band in every sense, and their immense appeal expands beyond fans of Yes and other progressive rock bands to include devoted followers from all walks around the world."



Track Listing

01. One World Going Round (05:25)
02. Dark Sky (05:10)
03. The Evolution Song (05:22)
04. Golden Age (03:46)
05. The Wake Of The Storm (06:31)
06. In Your Mind (06:01)
07. Not The Only One (03:46)
08. Euphoria (04:47)
09. Say Goodbye (05:48)
10. One By One By One (01:35)
11. Wheels Of Life (09:51)

Produced by Billy Sherwood

The Band

* Billy Sherwood - Vocals, Bass
* Bruce Gowdy - Guitars
* Guy Allison - Keyboards
* Jay Schellen - Drums

* Chris Squire (Conspiracy, Yes) - Bass & Backing Vocals (3, 9)

Exact Audio Copy V0.99 prebeta 4 from 23. January 2008

EAC extraction logfile from 13. February 2008, 17:27

World Trade / Euphoria

Used drive : LITE-ON DVDRW SOHW-1653S Adapter: 2 ID: 1

Read mode : Secure
Utilize accurate stream : Yes
Defeat audio cache : Yes
Make use of C2 pointers : No

Read offset correction

: 12
Overread into Lead-In and Lead-Out : No
Fill up missing offset samples with silence : Yes
Delete leading and trailing silent blocks : No
Null samples used in CRC calculations : No
Used interface
: Installed external ASPI interface

Used output format : Internal WAV Routines
Sample format : 44.100 Hz; 16 Bit; Stereo

TOC of the extracted CD Track | Start | Length | Start sector | End sector
--1 | 0:00.00 | 5:25.35 | 0 | 24409 2 | 5:25.35 | 5:10.62 | 24410 | 47721 3 | 10:36.22 | 5:22.45 | 47722 | 71916 4 | 15:58.67 | 3:46.35 | 71917 | 88901 5 | 19:45.27 | 6:31.60 | 88902 | 118286 6 | 26:17.12 | 6:01.30 | 118287 | 145391 7 | 32:18.42 | 3:46.10 | 145392 | 162351 8 | 36:04.52 | 4:47.55 | 162352 | 183931 9 | 40:52.32 | 5:48.30 | 183932 | 210061
10 | 46:40.62 | 1:35.58 | 210062 | 217244
11 | 48:16.45 | 9:51.20 | 217245 | 261589

Range status and errors

Selected range Filename euphoria2.wav Peak level 100.0 %
Range quality 100.0 %
Copy CRC 6A139EEC
Copy OK

No errors occurred


AccurateRip summary

Track 1 not present in database
Track 2 not present in database
Track 3 not present in database
Track 4 not present in database
Track 5 not present in database
Track 6 not present in database
Track 7 not present in database
Track 8 accurately ripped (confidence 1) [DD4BE988]
Track 9 not present in database
Track 10 not present in database
Track 11 not present in database

1 track(s) accurately ripped
10 track(s) not present in the AccurateRip database

Some tracks could not be verified as accurate

End of status report

Many thanks to the original uploader: hexonut
DOWNLOAD:
Buy Premium From My Links To Get Resumable Support & Max Speed & To Support Me


Links are Interchangeable - No Password

Direct Download

Tags: Euphoria

World Trade - Euphoria (1995) Download via Hotfile Rapidshare Fileserve Megaupload & FileSonic, World Trade - Euphoria (1995) free torrent downloads included crack, serial, keygen.


Attention!Information

Members of Guest cannot leave comments.