Chaise Lounge - Gin Fizz Fandango (2015)

Download Now

Chaise Lounge - Gin Fizz Fandango (2015)

Chaise Lounge - Gin Fizz Fandango (2015)
EAC Rip | FLAC (Img) + Cue + Log ~ 280 Mb | MP3 CBR320 ~ 128 Mb
Scans Included (JPG, 600 dpi) | RAR 5% Recovery
Chamber Jazz, Swing, Lounge | Modern Songbook Records #MSR-007

"With a sound that captures all the elegance, exuberance and flamboyance of the swinging ‘60s, Chaise Lounge delivers music that is high on style and sophistication. This Washington DC based ensemble of six accomplished musicians performs a groovy hybrid of pop-influenced jazz and swing that seems to both embody another era and belong to the present moment. Members playfully describe the group's style as " music that sounds like it was recorded at Capitol Recording Studios in 1962", "early stereo" or " perhaps lounge with a capital ‘L"..."

Chaise Lounge - Gin Fizz Fandango (2015)

All Music
***************

Chaise Lounge - Gin Fizz Fandango (2015)

Track List:

01. Tick Tock [03:01]
02. Last Night [03:08]
03. Hopscotch [02:51]
04. Gin Fizz Fandango [04:12]
05. You [04:38]
06. I See You [04:23]
07. Love Is Everywhere [03:07]
08. Mambo Noir [04:30]
09. Pigs In Blankets [02:54]
10. It's All Right With Me [03:21]
11. If I Never Get To Paris [04:07]
12. Celestial Navigation [02:34]

Exact Audio Copy V1.0 beta 3 from 29. August 2011

Отчёт EAC об извлечении, выполненном 8. ноября 2015, 9:59

Chaise Lounge / Gin Fizz Fandango

Дисковод: PLEXTOR DVDR PX-880SA Adapter: 1 ID: 0

Режим чтения : Достоверность
Использование точного потока : Да
Отключение кэша аудио : Да
Использование указателей C2 : Нет

Коррекция смещения при чтении : 6
Способность читать области Lead-in и Lead-out : Нет
Заполнение пропущенных сэмплов тишиной : Да
Удаление блоков с тишиной в начале и конце : Нет
При вычислениях CRC использовались нулевые сэмплы : Да
Интерфейс : Установленный внешний ASPI-интерфейс

Выходной формат : Пользовательский кодировщик
Выбранный битрейт : 1024 kBit/s
Качество : Высокий
Добавление ID3-тега : Нет
Утилита сжатия : C:\Program Files\Exact Audio Copy\FLAC\FLAC.EXE
Дополнительные параметры : -8 -V -T "ARTIST=%artist%" -T "ALBUM=%albumtitle%" -T "DATE=%year%" -T "GENRE=%genre%" -T "COMMENT=ripped by izia1956" %source%

TOC извлечённого CD Трек | Старт | Длительность | Начальный сектор | Конечный сектор

1 | 0:00.00 | 3:00.40 | 0 | 13539
2 | 3:00.40 | 3:07.32 | 13540 | 27596
3 | 6:07.72 | 2:50.21 | 27597 | 40367
4 | 8:58.18 | 4:11.26 | 40368 | 59218
5 | 13:09.44 | 4:37.22 | 59219 | 80015
6 | 17:46.66 | 4:22.72 | 80016 | 99737
7 | 22:09.63 | 3:06.12 | 99738 | 113699
8 | 25:16.00 | 4:29.03 | 113700 | 133877
9 | 29:45.03 | 2:53.27 | 133878 | 146879
10 | 32:38.30 | 3:20.54 | 146880 | 161933
11 | 35:59.09 | 4:06.38 | 161934 | 180421
12 | 40:05.47 | 2:33.22 | 180422 | 191918

Характеристики диапазона извлечения и сообщения об ошибках

Выбранный диапазон Имя файла D:\BitComet\Chaise Lounge(flac)\2015 - Gin Fizz Fandango\Chaise Lounge - Gin Fizz Fandango.wav Пиковый уровень 98.7 %
Скорость извлечения 2.9 X
Качество диапазона 100.0 %
CRC теста 701D692E
CRC копии 701D692E
Копирование... OK

Ошибок не произошло


AccurateRip: сводка

Трек 1 отсутствует в базе данных
Трек 2 отсутствует в базе данных
Трек 3 отсутствует в базе данных
Трек 4 отсутствует в базе данных
Трек 5 отсутствует в базе данных
Трек 6 отсутствует в базе данных
Трек 7 отсутствует в базе данных
Трек 8 отсутствует в базе данных
Трек 9 отсутствует в базе данных
Трек 10 отсутствует в базе данных
Трек 11 отсутствует в базе данных
Трек 12 отсутствует в базе данных

Ни одного трека нет в базе AccurateRip

Конец отчёта

==== Контрольная сумма отчёта F216CF4CAC837F2C532A6C95D6BC83A5AC587BD0AC7A71792D68C86D9CF9D5DC ====

foobar2000 1.2.6 / Dynamic Range Meter 1.1.1
log date: 2015-11-21 22:20:44

Analyzed: Chaise Lounge / Gin Fizz Fandango

DR Peak RMS Duration Track

DR8 -0.38 dB -10.62 dB 3:01 01-Tick Tock
DR8 -0.33 dB -11.07 dB 3:07 02-Last Night
DR8 -0.25 dB -10.84 dB 2:50 03-Hopscotch
DR8 -0.22 dB -9.50 dB 4:11 04-Gin Fizz Fandango
DR8 -0.11 dB -9.29 dB 4:37 05-You
DR9 -0.13 dB -11.90 dB 4:23 06-I See You
DR8 -0.21 dB -10.80 dB 3:06 07-Love Is Everywhere
DR8 -0.12 dB -9.95 dB 4:29 08-Mambo Noir
DR8 -0.29 dB -9.88 dB 2:53 09-Pigs In Blankets
DR9 -0.19 dB -11.02 dB 3:21 10-It's All Right With Me
DR10 -0.34 dB -12.96 dB 4:07 11-If I Never Get To Paris
DR8 -0.33 dB -10.06 dB 2:33 12-Celestial Navigation

Number of tracks: 12
Official DR value: DR8

Samplerate: 44100 Hz
Channels: 2
Bits per sample: 16
Bitrate: 793 kbps
Codec: FLAC

[CUETools log; Date: 21.11.2015 22:20:34; Version: 2.1.5]
[CTDB TOCID: aJhGrFdpgHB_malkpzlCmcK33Ko-] disk not present in database.
[AccurateRip ID: 00130fbb-00b399b0-9d09fe0c] disk not present in database.

Track Peak [ CRC32 ] [W/O NULL] [ LOG ]
-- 98,7 [701D692E] [2E80956A] CRC32
01 95,7 [7948B574] [8C423AB0]
02 96,3 [5C182E85] [2DA3FFD6]
03 97,1 [1DEDE23F] [02C6B323]
04 97,4 [D1C557E2] [52C1F964]
05 98,7 [09FFB7CF] [258FC3A3]
06 98,5 [C825E397] [189F9861]
07 97,6 [11FC8369] 8DDBB4A
08 98,6 [9B37E824] [27991303]
09 96,7 [4C6BE434] [0D102375]
10 97,8 [4151AA66] 91D95C7
11 96,1 [D4F1F49E] [6A3737B0]
12 96,2 [00D79C9B] [E29E7CFC]

Chaise Lounge - Gin Fizz Fandango (2015)


DOWNLOAD:
Buy Premium From My Links To Get Resumable Support & Max Speed & To Support Me


Links are Interchangeable - No Password

Direct Download

Tags: Chaise, Lounge, Fandango

Chaise Lounge - Gin Fizz Fandango (2015) Download via Hotfile Rapidshare Fileserve Megaupload & FileSonic, Chaise Lounge - Gin Fizz Fandango (2015) free torrent downloads included crack, serial, keygen.


Attention!Information

Members of Guest cannot leave comments.