Vladimir & Vovka Ashkenazy - Claude Debussy, Maurice Ravel: Music for Two Pianos (2009)

Download Now

Vladimir & Vovka Ashkenazy - Claude Debussy, Maurice Ravel: Music for Two Pianos (2009)

Vladimir & Vovka Ashkenazy - Claude Debussy, Maurice Ravel: Music for Two Pianos (2009)
EAC | FLAC | Image (Cue&Log) ~ 224 Mb (incl 5%) | Mp3 (CBR320) ~ 197 Mb (incl 5%) | Scans included
Genre: Classical | Label: Decca | # 478 1090 DH | Time: 01:06:01

"With this disc, Vladimir Ashkenazy, celebrated for his readings of Rachmaninoff and Chopin, and his son, Vovka, take on music by Debussy and Ravel for two pianos, and the results, utterly unlike virtually anything Ashkenazy père has ever recorded before, make it a real winner. From the electric excitement of the opening En blanc et noir, through the hazy mysteries of Jeux, and the luminous colors of the Rapsodie espagnole, to the inexorable hysteria of La Valse, Ashkenazy père and fils turn in performances that match the music for poise, drive, and technical brilliance. Some might find their sonorities a bit hard-edged at points -- should the opening of En blanc et noir and the close of La Valse really be hit so strongly? -- but the results are so consistently thrilling that most listeners are likely to be swept away. Recorded in close but clear and vivid digital sound, this disc may not be for every Debussy and Ravel fan, but it should certainly appeal to fans of Ashkenazy."



Tracklist:

01. Debussy - En blanc et noir - I. Avec emportement (04:02)
02. Debussy - En blanc et noir - II. Lent - Sombre (06:34)
03. Debussy - En blanc et noir - III. Scherzando (04:17)

04. Debussy - Jeux (arr. Bavouzet) (16:32)
05. Debussy - Lindaraja (05:53)

06. Ravel - Entre cloches (from Sites auriculaires) (02:44)

07. Ravel - Rapsodie espagnole - I. Prelude a la nuit (03:45)
08. Ravel - Rapsodie espagnole - II. Malaguena (02:04)
09. Ravel - Rapsodie espagnole - III. Habanera (02:36)
10. Ravel - Rapsodie espagnole - IV. Feria (06:23)

11. Ravel - La Valse (11:07)


Exact Audio Copy V1.0 beta 1 from 15. November 2010

EAC extraction logfile from 22. January 2012, 23:53

Debussy & Ravel / Music for Two Pianos

Used drive : Optiarc DVD RW AD-7203A Adapter: 4 ID: 1

Read mode : Secure
Utilize accurate stream : Yes
Defeat audio cache : Yes
Make use of C2 pointers : No

Read offset correction

: 48
Overread into Lead-In and Lead-Out : No
Fill up missing offset samples with silence : Yes
Delete leading and trailing silent blocks : No
Null samples used in CRC calculations : Yes
Used interface
: Native Win32 interface for Win NT & 2000

Used output format : User Defined Encoder
Selected bitrate : 128 kBit/s
Quality : High
Add ID3 tag : No
Command line compressor : C:\Program Files\FLAC\flac.exe
Additional command line options : -T "COMMENT=Ripped by GFox" -8 -V %s

TOC of the extracted CD Track | Start | Length | Start sector | End sector
--1 | 0:00.00 | 4:02.63 | 0 | 18212 2 | 4:02.63 | 6:34.68 | 18213 | 47830 3 | 10:37.56 | 4:17.01 | 47831 | 67106 4 | 14:54.57 | 16:32.38 | 67107 | 141544 5 | 31:27.20 | 5:53.00 | 141545 | 168019 6 | 37:20.20 | 2:44.00 | 168020 | 180319 7 | 40:04.20 | 3:45.73 | 180320 | 197267 8 | 43:50.18 | 2:04.02 | 197268 | 206569 9 | 45:54.20 | 2:36.03 | 206570 | 218272
10 | 48:30.23 | 6:23.47 | 218273 | 247044
11 | 54:53.70 | 11:07.38 | 247045 | 297107

Range status and errors

Selected range Filename D:\EAC\Debussy & Ravel - Music for Two Pianos.wav Peak level 97.6 %
Extraction speed 0.5 X
Range quality 100.0 %
Test CRC 1D02A062
Copy CRC 1D02A062
Copy OK

No errors occurred


AccurateRip summary

Track 1 accurately ripped (confidence 2) [7853251F]
Track 2 accurately ripped (confidence 2) [E142098F]
Track 3 accurately ripped (confidence 2) E481905
Track 4 accurately ripped (confidence 2) [C375677D]
Track 5 accurately ripped (confidence 2) [2CC4FF49]
Track 6 accurately ripped (confidence 2) [E27DE8BF]
Track 7 accurately ripped (confidence 2) 7A38D7B
Track 8 accurately ripped (confidence 2) [EEA8F730]
Track 9 accurately ripped (confidence 2) [F602BF9A]
Track 10 accurately ripped (confidence 2) [4FA69EB8]
Track 11 accurately ripped (confidence 2) [AFE1A1AD]

All tracks accurately ripped

End of status report

==== Log checksum DC970F48AE822371627B4AC2229C7DF344C6EE1DC70EC2A2D20F4E4A3C9AE844 ====

foobar2000 1.3.8 / Dynamic Range Meter 1.1.1
log date: 2015-11-21 13:03:58

Analyzed: Debussy & Ravel / Music for Two Pianos

DR Peak RMS Duration Track

DR16 -1.68 dB -22.74 dB 4:03 01-Debussy - En blanc et noir - I. Avec emportement
DR15 -3.50 dB -26.57 dB 6:35 02-Debussy - En blanc et noir - II. Lent - Sombre
DR16 -6.02 dB -26.27 dB 4:17 03-Debussy - En blanc et noir - III. Scherzando
DR15 -2.51 dB -23.35 dB 16:33 04-Debussy - Jeux (arr. Bavouzet)
DR14 -6.22 dB -26.30 dB 5:53 05-Debussy - Lindaraja
DR12 -1.87 dB -19.07 dB 2:44 06-Ravel - Entre cloches (from Sites auriculaires)
DR16 -5.19 dB -31.32 dB 3:46 07-Ravel - Rapsodie espagnole - I. Prelude a la nuit
DR14 -5.64 dB -26.06 dB 2:04 08-Ravel - Rapsodie espagnole - II. Malaguena
DR14 -11.43 dB -31.50 dB 2:36 09-Ravel - Rapsodie espagnole - III. Habanera
DR15 -1.42 dB -22.12 dB 6:24 10-Ravel - Rapsodie espagnole - IV. Feria
DR14 -0.20 dB -20.37 dB 11:08 11-Ravel - La Valse

Number of tracks: 11
Official DR value: DR15

Samplerate: 44100 Hz
Channels: 2
Bits per sample: 16
Bitrate: 373 kbps
Codec: FLAC

Vladimir & Vovka Ashkenazy - Claude Debussy, Maurice Ravel: Music for Two Pianos (2009)

All thanks to original releaser - GFox
Password: designol

DOWNLOAD LINKS:
Buy Premium To Support Me & Get Resumable Support & Max Speed


Links are Interchangeable - No Password - Single Extraction

Direct Download

Tags: Vladimir, Ashkenazy, Claude, Debussy, Maurice, Pianos

Vladimir & Vovka Ashkenazy - Claude Debussy, Maurice Ravel: Music for Two Pianos (2009) Download via Hotfile Rapidshare Fileserve Megaupload & FileSonic, Vladimir & Vovka Ashkenazy - Claude Debussy, Maurice Ravel: Music for Two Pianos (2009) free torrent downloads included crack, serial, keygen.


Attention!Information

Members of Guest cannot leave comments.