Roberta Flack - Let It Be Roberta: Roberta Flack Sings The Beatles (2012)

Download Now

Roberta Flack - Let It Be Roberta: Roberta Flack Sings The Beatles (2012)

Roberta Flack - Let It Be Roberta: Roberta Flack Sings The Beatles (2012)
R&B, Soul, Pop/Rock | EAC Rip | FLAC, Img+CUE + LOG + Full Scans-600dpi (PNG) | 49:28 Min | 478,19 Mb
Label: 429 Records (USA) | Released: 2012, February, 7

"
The Beatles' song catalog is one of the best-known and revered bodies of work in the whole of modern music, and the depth, variety, and timelessness of the songs this once-in-a-lifetime band produced make that catalog both a marvel and a treasure. Everyone knows these songs, and everyone knows them in the original Beatles versions. Those versions are there, shining in stone, and even when they show up in remixes like in the recent LOVE mashup, the original recordings echo unshakably in the mind. Roberta Flack knows this. On Let It Be Roberta: Roberta Flack Sings the Beatles, she tackles 12 of the group's songs - 11 written by John Lennon and Paul McCartney and one written by George Harrison - and she knows full well that she's dealing with the ghosts of the original versions.
"

Roberta Flack - Let It Be Roberta: Roberta Flack Sings The Beatles (2012)

Roberta Flack - Let It Be Roberta: Roberta Flack Sings The Beatles (2012)


Release of this CD: 2012, February, 7 [CD 429 Records (USA), Cat.# FTN17582 / UPC: 795041785220]
℗&©2012 Sony / ATV Music Publishing (USA)

Producers: Sherrod Barnes, Jerry Barnes, Barry Miles, Ricardo Jordan, Roberta Flack
Executive Producer: Roberta Flack

Backing Vocals - Jerry Barnes, Katreece Barnes, Roberta Flack, Sherrod Barnes, Tameka Simone, Vivian Sessoms
Bass - David Williams, Jerry Barnes, Nichlas Branker, Sherrod Barnes
Drums - Bernard Sweetney, Buddy Williams, Charlie Drayton, Chris Parks, Kuhari Parker, Ricardo Jordan
Guitar - Dean Brown, Jerry Barnes, Nathan Page, Sherrod Barnes
Keyboards - Barry Miles, Bernard Wright, Morris Pleasure, Roberta Flack, Selan Lerner, Shedrick Mitchell, Sherrod Barnes
Written-By - George Harrison (tracks: 9), John Lennon (tracks: 6, 8, 10), Lennon-McCartney (tracks: 1 to 3, 11), Paul McCartney (tracks: 4, 5, 7, 12)


Tracklist:

01. "In My Life" (04:09)
(John Lennon / Paul McCartney)
02. "Hey Jude" (03:11)
(John Lennon / Paul McCartney)
03. "We Can Work It Out" (04:02)
(John Lennon / Paul McCartney)
04. "Let It Be" (04:15)
(John Lennon / Paul McCartney)
05. "Oh Darling" (04:39)
(John Lennon / Paul McCartney)
06. "I Should Have Know Better" (03:14)
(John Lennon / Paul McCartney)
07. "The Long And Winding Road" (04:08)
(John Lennon / Paul McCartney)
08. "Come Together" (04:39)
(John Lennon / Paul McCartney)
09. "Isn't It A Pity" (03:41)
(George Harrison)
10. If I Fell (03:24)
(John Lennon / Paul McCartney)
11. And I Love Him (03:50)
(John Lennon / Paul McCartney)
12. Here, There, And Everywhere (06:16)
(John Lennon / Paul McCartney)

Exact Audio Copy V1.0 beta 3 from 29. August 2011

EAC extraction logfile from 25. March 2012, 20:27

Roberta Flack / Let It Be Roberta - Roberta Flack Sings The Beatles

Used drive : ATAPI DVD DW 8X16X8X16 Adapter: 0 ID: 2

Read mode : Secure
Utilize accurate stream : Yes
Defeat audio cache : Yes
Make use of C2 pointers : No

Read offset correction

: 618
Overread into Lead-In and Lead-Out : No
Fill up missing offset samples with silence : Yes
Delete leading and trailing silent blocks : No
Null samples used in CRC calculations : Yes
Used interface
: Native Win32 interface for Win NT & 2000

Used output format : Internal WAV Routines
Sample format : 44.100 Hz; 16 Bit; Stereo

TOC of the extracted CD Track | Start | Length | Start sector | End sector
--1 | 0:00.00 | 4:09.25 | 0 | 18699 2 | 4:09.25 | 3:11.17 | 18700 | 33041 3 | 7:20.42 | 4:02.16 | 33042 | 51207 4 | 11:22.58 | 4:15.34 | 51208 | 70366 5 | 15:38.17 | 4:39.00 | 70367 | 91291 6 | 20:17.17 | 3:14.45 | 91292 | 105886 7 | 23:31.62 | 4:08.46 | 105887 | 124532 8 | 27:40.33 | 4:39.29 | 124533 | 145486 9 | 32:19.62 | 3:41.24 | 145487 | 162085
10 | 36:01.11 | 3:24.31 | 162086 | 177416
11 | 39:25.42 | 3:50.41 | 177417 | 194707
12 | 43:16.08 | 6:16.10 | 194708 | 222917

Range status and errors

Selected range Filename C:\BlondStyle\Let It Be Roberta.wav Peak level 100.0 %
Extraction speed 8.1 X
Range quality 100.0 %
Test CRC 43FEA318
Copy CRC 43FEA318
Copy OK

No errors occurred


AccurateRip summary

Track 1 not present in database
Track 2 not present in database
Track 3 not present in database
Track 4 not present in database
Track 5 not present in database
Track 6 not present in database
Track 7 not present in database
Track 8 not present in database
Track 9 not present in database
Track 10 not present in database
Track 11 not present in database
Track 12 not present in database

None of the tracks are present in the AccurateRip database

End of status report

==== Log checksum 40AE66EED9D935E166E57CDF7BBBD6BBE02BB693EBED7D02A74EA148DEE6B72D ====

foobar2000 1.3.7 / Dynamic Range Meter 1.1.1
log date: 2015-11-22 00:18:55

Analyzed: Roberta Flack / Let It Be Roberta - Roberta Flack Sings The Beatles

DR Peak RMS Duration Track

DR6 -0.01 dB -8.20 dB 4:09 01-In My Life
DR8 -0.01 dB -10.04 dB 3:11 02-Hey Jude
DR8 -0.01 dB -9.62 dB 4:02 03-We Can Work It Out
DR6 -0.15 dB -9.85 dB 4:15 04-Let It Be
DR7 -0.01 dB -9.63 dB 4:39 05-Oh Darling
DR7 -0.01 dB -8.56 dB 3:15 06-I Should Have Known Better
DR7 -0.01 dB -8.19 dB 4:09 07-The Long & Winding Road
DR8 -0.01 dB -10.01 dB 4:39 08-Come Together
DR6 0.00 dB -9.09 dB 3:41 09-Isn't It A Pity
DR7 -0.01 dB -9.08 dB 3:24 10-If I Fell
DR8 -0.01 dB -9.26 dB 3:51 11-And I Love Him
DR9 -0.15 dB -13.19 dB 6:16 12-Here, There, And Everywhere

Number of tracks: 12
Official DR value: DR7

Samplerate: 44100 Hz
Channels: 2
Bits per sample: 16
Bitrate: 851 kbps
Codec: FLAC



password: BlondStyle


Download:
Buy Premium To Support Me & Get Resumable Support & Max Speed


Links are Interchangeable - No Password

Direct Download

Tags: Roberta, Roberta, Roberta, Beatles

Roberta Flack - Let It Be Roberta: Roberta Flack Sings The Beatles (2012) Download via Hotfile Rapidshare Fileserve Megaupload & FileSonic, Roberta Flack - Let It Be Roberta: Roberta Flack Sings The Beatles (2012) free torrent downloads included crack, serial, keygen.


Attention!Information

Members of Guest cannot leave comments.