Quil Tanachen - 3 Albums (2001)

Download Now

Quil Tanachen - 3 Albums (2001)

Quil Tanachen - 3 Albums (2001)
EAC Rip | FLAC (tracks+.cue+log) - 725 MB | MP3 CBR 320 kbps (LAME 3.93) - 383 MB | Covers - 200 MB
Genre: New Age, Meditative | RAR 3% Rec. | Label: DA Music

"Healing Flutes By The Ocean (2001). The sounds of the sea provide a soothing background to this unique Healing Flute album from Quil Tanachen. The subtle phrasing, interweaving beautifully with the natural movement of the ocean creates a wonderful environment of pure healing energy that will nurture and heal the inner spirit..."

Quil Tanachen - 3 Albums (2001)

Quil Tanachen - Healing Flutes By The Ocean (2001)
EAC Rip | FLAC (tracks+.cue+log) - 252 MB | MP3 CBR 320 kbps (LAME 3.93) - 127 MB | Covers - 67 MB
Genre: New Age, Meditative | RAR 3% Rec. | Label: DA Music (CD 873112-2), InBalance Series

Tracklist:
01. Tanzende Nymphe (Dance Nymph)
02. Laune (Mood)
03. Altweibersommer (Indian Summer)
04. Mondschatten (Moon Shadow)
05. Horizont (Horizon)
06. Sonnenaufgang (Sunrise)
07. Dämmerung (Dawn)
08. Schwindlige Welle (Dizzy Wave)
09. Höhepunkt (Crests)
10. Allein (Alone)

Total time: 53:44

Exact Audio Copy V1.0 beta 1 from 15. November 2010

EAC extraction logfile from 20. September 2015, 14:48

Quil Tanachen / Healing Flutes By The Ocean

Used drive : Optiarc DVD RW AD-5200A Adapter: 0 ID: 1

Read mode : Secure
Utilize accurate stream : Yes
Defeat audio cache : Yes
Make use of C2 pointers : No

Read offset correction

: 48
Overread into Lead-In and Lead-Out : No
Fill up missing offset samples with silence : Yes
Delete leading and trailing silent blocks : No
Null samples used in CRC calculations : Yes
Used interface
: Installed external ASPI interface
Gap handling
: Appended to previous track

Used output format : User Defined Encoder
Selected bitrate : 192 kBit/s
Quality : High
Add ID3 tag : No
Command line compressor : C:\Program Files\Exact Audio Copy\Flac\flac.exe
Additional command line options : -8 -V -T "ARTIST=%a" -T "TITLE=%t" -T "ALBUM=%g" -T "DATE=%y" -T "TRACKNUMBER=%n" -T "GENRE=%m" -T "COMMENT=EAC FLAC -8" %s

TOC of the extracted CD Track | Start | Length | Start sector | End sector
--1 | 0:00.00 | 5:12.08 | 0 | 23407 2 | 5:12.08 | 6:30.29 | 23408 | 52686 3 | 11:42.37 | 4:05.37 | 52687 | 71098 4 | 15:47.74 | 5:41.19 | 71099 | 96692 5 | 21:29.18 | 5:16.66 | 96693 | 120458 6 | 26:46.09 | 5:28.34 | 120459 | 145092 7 | 32:14.43 | 5:33.63 | 145093 | 170130 8 | 37:48.31 | 4:42.26 | 170131 | 191306 9 | 42:30.57 | 5:18.42 | 191307 | 215198
10 | 47:49.24 | 6:10.09 | 215199 | 242957

Track 1 Filename I:\music\newage\flac\0_inbalance\Healing Flutes By The Ocean\01-Quil Tanachen - Dancing Nymphe.wav Pre-gap length 0:00:02.00 Peak level 61.5 %
Extraction speed 2.5 X
Track quality 100.0 %
Test CRC 4283ED2F
Copy CRC 4283ED2F
Cannot be verified as accurate (confidence 1) [3676DE29], AccurateRip returned [FE67745F]
Copy OK

Track 2 Filename I:\music\newage\flac\0_inbalance\Healing Flutes By The Ocean\02-Quil Tanachen - Mood.wav Peak level 77.2 %
Extraction speed 2.9 X
Track quality 100.0 %
Test CRC 34092147
Copy CRC 34092147
Cannot be verified as accurate (confidence 1) [75FFD92D], AccurateRip returned [DF1C0A41]
Copy OK

Track 3 Filename I:\music\newage\flac\0_inbalance\Healing Flutes By The Ocean\03-Quil Tanachen - Indian Summer.wav Peak level 59.2 %
Extraction speed 3.1 X
Track quality 100.0 %
Test CRC 02C7A951
Copy CRC 02C7A951
Cannot be verified as accurate (confidence 1) 2DA0A28, AccurateRip returned [33503A92]
Copy OK

Track 4 Filename I:\music\newage\flac\0_inbalance\Healing Flutes By The Ocean\04-Quil Tanachen - Moon Shadow.wav Peak level 71.7 %
Extraction speed 3.4 X
Track quality 100.0 %
Test CRC 6617C687
Copy CRC 6617C687
Cannot be verified as accurate (confidence 1) [16457BA2], AccurateRip returned [28D33738]
Copy OK

Track 5 Filename I:\music\newage\flac\0_inbalance\Healing Flutes By The Ocean\05-Quil Tanachen - Horizon.wav Peak level 24.4 %
Extraction speed 3.6 X
Track quality 100.0 %
Test CRC 70C63334
Copy CRC 70C63334
Cannot be verified as accurate (confidence 1) [D35B3D79], AccurateRip returned [0D50D8DC]
Copy OK

Track 6 Filename I:\music\newage\flac\0_inbalance\Healing Flutes By The Ocean\06-Quil Tanachen - Sunrise.wav Peak level 44.9 %
Extraction speed 3.6 X
Track quality 100.0 %
Test CRC EA5B259C
Copy CRC EA5B259C
Cannot be verified as accurate (confidence 1) [2D5A492B], AccurateRip returned [FB2A418C]
Copy OK

Track 7 Filename I:\music\newage\flac\0_inbalance\Healing Flutes By The Ocean\07-Quil Tanachen - Dawn.wav Peak level 52.1 %
Extraction speed 3.7 X
Track quality 100.0 %
Test CRC BDC28504
Copy CRC BDC28504
Cannot be verified as accurate (confidence 1) [C74BD25C], AccurateRip returned [9C481140]
Copy OK

Track 8 Filename I:\music\newage\flac\0_inbalance\Healing Flutes By The Ocean\08-Quil Tanachen - Dizzy Wave.wav Peak level 47.0 %
Extraction speed 3.6 X
Track quality 100.0 %
Test CRC 4D7A2758
Copy CRC 4D7A2758
Cannot be verified as accurate (confidence 1) [1070B51E], AccurateRip returned [6B14967C]
Copy OK

Track 9 Filename I:\music\newage\flac\0_inbalance\Healing Flutes By The Ocean\09-Quil Tanachen - Crests.wav Peak level 20.9 %
Extraction speed 3.7 X
Track quality 100.0 %
Test CRC 44F60B96
Copy CRC 44F60B96
Cannot be verified as accurate (confidence 1) [F90AB240], AccurateRip returned 097508C
Copy OK

Track 10 Filename I:\music\newage\flac\0_inbalance\Healing Flutes By The Ocean\10-Quil Tanachen - Alone.wav Peak level 87.2 %
Extraction speed 3.7 X
Track quality 100.0 %
Test CRC 06AF5F1F
Copy CRC 06AF5F1F
Cannot be verified as accurate (confidence 1) [0F88358F], AccurateRip returned [96BC6760]
Copy OK

No tracks could be verified as accurate
You may have a different pressing from the one(s) in the database

No errors occurred

End of status report

==== Log checksum 7913DA5870129E7BEF2542273D15C67CE50BBA9A4D75887554FCF3AE265C35BE ====

[CUETools log; Date: 20.11.2015 17:16:31; Version: 2.1.4]
[CTDB TOCID: riI6WPNOpZZqeKx3bAcaBlfZeq4-] found.
Track | CTDB Status
1 | (2/2) Accurately ripped
2 | (2/2) Accurately ripped
3 | (2/2) Accurately ripped
4 | (2/2) Accurately ripped
5 | (2/2) Accurately ripped
6 | (2/2) Accurately ripped
7 | (2/2) Accurately ripped
8 | (1/2) Accurately ripped
9 | (1/2) Accurately ripped
10 | (1/2) Differs in 357 samples @01:45:43-01:45:44,05:29:03-05:29:04,05:32:31,05:32:69-05:32:70,05:35:58-05:35:59
[AccurateRip ID: 0014478a-00a20673-850ca70a] found.
Track [ CRC | V2 ] Status
01 [3676de29|dd33e097] (0+0/2) No match
02 [75ffd92d|33e6ee6a] (0+0/2) No match
03 2da0a28|bca7f85c (0+0/2) No match
04 [16457ba2|c7c30a53] (0+0/2) No match
05 [d35b3d79|e78c1443] (0+0/2) No match
06 [2d5a492b|e5c8b88f] (0+0/2) No match
07 [c74bd25c|145903bc] (0+0/2) No match
08 [1070b51e|16f09cea] (0+0/2) No match
09 [f90ab240|d31d9506] (0+0/2) No match
10 [0f88358f|7e980b31] (0+0/2) No match

Track Peak [ CRC32 ] [W/O NULL] [ LOG ]
-- 87,2 BA42506 1A568C8
01 61,5 [4283ED2F] [A528ABDB] CRC32
02 77,2 [34092147] [48DB5B3B] CRC32
03 59,2 [02C7A951] [01F57962] CRC32
04 71,7 [6617C687] [44781581] CRC32
05 24,4 [70C63334] [840B4359] CRC32
06 44,9 [EA5B259C] [A13B9FC8] CRC32
07 52,1 DC28504 [34D19D14] CRC32
08 47,0 [4D7A2758] [9E361BE6] CRC32
09 20,9 [44F60B96] [2710CB5E] CRC32
10 87,2 [06AF5F1F] [AFA557E5] CRC32

Quil Tanachen - 3 Albums (2001)

Quil Tanachen - Yoga (2001)
EAC Rip | FLAC (tracks+.cue+log) - 264 MB | MP3 CBR 320 kbps (LAME 3.93) - 142 MB | Covers - 67 MB
Genre: New Age, Meditative | RAR 3% Rec. | Label: DA Music (CD 873113-2), InBalance Series

Tracklist:
01. Tanz Im Feuer (Dance in the Fire)
02. Eine Passionata (A Passionata)
03. Schimmel (White Horses)
04. Der Sand-Pfeifer (The Sand Piper)
05. Paradiesvögel (Birds of Paradise)
06. Blauer Berghang (Blue Mountainside)
07. Zauberteppich (Magic Carpet)
08. Erwachen im Brunnen (Awake in the Fountain)
09. Ruhe (Stillness)
10. Kasbah

Total time: 01:00:25

Exact Audio Copy V1.0 beta 1 from 15. November 2010

EAC extraction logfile from 9. September 2015, 10:27

Quil Tanachen / Music for Yoga

Used drive : ASUS DRW-1814BL Adapter: 0 ID: 0

Read mode : Secure
Utilize accurate stream : Yes
Defeat audio cache : Yes
Make use of C2 pointers : No

Read offset correction

: 6
Overread into Lead-In and Lead-Out : No
Fill up missing offset samples with silence : Yes
Delete leading and trailing silent blocks : No
Null samples used in CRC calculations : Yes
Used interface
: Installed external ASPI interface
Gap handling
: Appended to previous track

Used output format : User Defined Encoder
Selected bitrate : 192 kBit/s
Quality : High
Add ID3 tag : No
Command line compressor : C:\Program Files\Exact Audio Copy\Flac\flac.exe
Additional command line options : -8 -V -T "ARTIST=%a" -T "TITLE=%t" -T "ALBUM=%g" -T "DATE=%y" -T "TRACKNUMBER=%n" -T "GENRE=%m" -T "COMMENT=EAC FLAC -8" %s

TOC of the extracted CD Track | Start | Length | Start sector | End sector
--1 | 0:00.00 | 10:54.58 | 0 | 49107 2 | 10:54.58 | 4:32.07 | 49108 | 69514 3 | 15:26.65 | 4:33.49 | 69515 | 90038 4 | 20:00.39 | 5:15.13 | 90039 | 113676 5 | 25:15.52 | 4:28.37 | 113677 | 133813 6 | 29:44.14 | 8:20.68 | 133814 | 171381 7 | 38:05.07 | 4:16.03 | 171382 | 190584 8 | 42:21.10 | 4:43.67 | 190585 | 211876 9 | 47:05.02 | 6:30.11 | 211877 | 241137
10 | 53:35.13 | 6:49.31 | 241138 | 271843

Track 1 Filename I:\music\newage\flac\0_inbalance\Music for Yoga-2000-FLAC\01-Quil Tanachen - Dance in The Fire.wav Pre-gap length 0:00:02.00 Peak level 85.7 %
Extraction speed 3.7 X
Track quality 100.0 %
Test CRC A633F42C
Copy CRC A633F42C
Track not present in AccurateRip database
Copy OK

Track 2 Filename I:\music\newage\flac\0_inbalance\Music for Yoga-2000-FLAC\02-Quil Tanachen - A Passionata.wav Peak level 85.0 %
Extraction speed 3.4 X
Track quality 100.0 %
Test CRC DC144BD6
Copy CRC DC144BD6
Track not present in AccurateRip database
Copy OK

Track 3 Filename I:\music\newage\flac\0_inbalance\Music for Yoga-2000-FLAC\03-Quil Tanachen - White Horses.wav Peak level 74.4 %
Extraction speed 3.4 X
Track quality 100.0 %
Test CRC 9E6D9116
Copy CRC 9E6D9116
Track not present in AccurateRip database
Copy OK

Track 4 Filename I:\music\newage\flac\0_inbalance\Music for Yoga-2000-FLAC\04-Quil Tanachen - The Sand Piper.wav Peak level 85.4 %
Extraction speed 3.5 X
Track quality 100.0 %
Test CRC 8E0C2B66
Copy CRC 8E0C2B66
Track not present in AccurateRip database
Copy OK

Track 5 Filename I:\music\newage\flac\0_inbalance\Music for Yoga-2000-FLAC\05-Quil Tanachen - Birds Of paradise.wav Peak level 85.7 %
Extraction speed 3.4 X
Track quality 100.0 %
Test CRC D17D3C05
Copy CRC D17D3C05
Track not present in AccurateRip database
Copy OK

Track 6 Filename I:\music\newage\flac\0_inbalance\Music for Yoga-2000-FLAC\06-Quil Tanachen - Blue Mountainside.wav Peak level 86.7 %
Extraction speed 3.6 X
Track quality 100.0 %
Test CRC 9E3C0CF2
Copy CRC 9E3C0CF2
Track not present in AccurateRip database
Copy OK

Track 7 Filename I:\music\newage\flac\0_inbalance\Music for Yoga-2000-FLAC\07-Quil Tanachen - Magic Carpet.wav Peak level 63.1 %
Extraction speed 3.0 X
Track quality 99.9 %
Test CRC B5F55F9E
Copy CRC B5F55F9E
Track not present in AccurateRip database
Copy OK

Track 8 Filename I:\music\newage\flac\0_inbalance\Music for Yoga-2000-FLAC\08-Quil Tanachen - Awake In The Fountain.wav Peak level 83.1 %
Extraction speed 3.1 X
Track quality 99.9 %
Test CRC 6F95EBFA
Copy CRC 6F95EBFA
Track not present in AccurateRip database
Copy OK

Track 9 Filename I:\music\newage\flac\0_inbalance\Music for Yoga-2000-FLAC\09-Quil Tanachen - Stillness.wav Peak level 79.9 %
Extraction speed 3.6 X
Track quality 100.0 %
Test CRC 33E54CA0
Copy CRC 33E54CA0
Track not present in AccurateRip database
Copy OK

Track 10 Filename I:\music\newage\flac\0_inbalance\Music for Yoga-2000-FLAC\10-Quil Tanachen - Kasbah.wav Peak level 86.8 %
Extraction speed 3.6 X
Track quality 100.0 %
Test CRC 187CECA2
Copy CRC 187CECA2
Track not present in AccurateRip database
Copy OK

None of the tracks are present in the AccurateRip database

No errors occurred

End of status report

==== Log checksum B89B51E973950871A7DB0CA9F3A67D065E4711EACAF588E30CF16F4562A79562 ====

[CUETools log; Date: 20.11.2015 17:20:49; Version: 2.1.4]
[CTDB TOCID: at83qIJKP00Bws.FY0RrGYsS2zQ-] found.
Track | CTDB Status
1 | (2/2) Accurately ripped
2 | (2/2) Accurately ripped
3 | (2/2) Accurately ripped
4 | (2/2) Accurately ripped
5 | (2/2) Accurately ripped
6 | (2/2) Accurately ripped
7 | (2/2) Accurately ripped
8 | (2/2) Accurately ripped
9 | (2/2) Accurately ripped
10 | (2/2) Accurately ripped
[AccurateRip ID: 00178b43-00b830ba-900e280a] disk not present in database.

Track Peak [ CRC32 ] [W/O NULL] [ LOG ]
-- 86,8 [CC245A16] [815F93B2]
01 85,7 [A633F42C] [77FC6BCE] CRC32
02 85,0 [DC144BD6] [9152EC3D] CRC32
03 74,4 [9E6D9116] [D20833B4] CRC32
04 85,4 [8E0C2B66] [878B8361] CRC32
05 85,7 [D17D3C05] [41208668] CRC32
06 86,7 [9E3C0CF2] [7B4DD0CD] CRC32
07 63,1 5F55F9E [668E019A] CRC32
08 83,1 [6F95EBFA] [99ABB67C] CRC32
09 79,9 [33E54CA0] [65F106F8] CRC32
10 86,8 [187CECA2] [D074A480] CRC32

Quil Tanachen - 3 Albums (2001)

Quil Tanachen - Zen For Meditation (2001)
EAC Rip | FLAC (tracks+.cue+log) - 209 MB | MP3 CBR 320 kbps (LAME 3.93) - 114 MB | Covers - 66 MB
Genre: New Age, Meditative | RAR 3% Rec. | Label: DA Music (CD 873115-2), InBalance Series

Tracklist:
01. Med Mig Själv
02. Die Zeit Ist Gekommen (The Time Has Come)
03. Suche Zuerst Einen Engel (First Find an Angel)
04. Das Glas-Perlen Spiel (The Glass Bead Game)
05. Wer Wird Weinen? (who Will Cry?)
06. Regen 1 (Rain I)
07. Mondflut (Moontide)
08. Das Dorf (The Village)
09. Sowena (Sowena)
10. Das Leichentuch (The Shroud)
11. Fantasie 1
12. Fantasie 2
13. Fantasie 3
14. Knoten (Knots)
15. Regen 2 (Rain II)
16. Nasrudin

Total time: 48:11

Exact Audio Copy V1.0 beta 1 from 15. November 2010

EAC extraction logfile from 20. September 2015, 16:14

Quil Tanachen / Zen For Meditation

Used drive : Optiarc DVD RW AD-5200A Adapter: 0 ID: 1

Read mode : Secure
Utilize accurate stream : Yes
Defeat audio cache : Yes
Make use of C2 pointers : No

Read offset correction

: 48
Overread into Lead-In and Lead-Out : No
Fill up missing offset samples with silence : Yes
Delete leading and trailing silent blocks : No
Null samples used in CRC calculations : Yes
Used interface
: Installed external ASPI interface
Gap handling
: Appended to previous track

Used output format : User Defined Encoder
Selected bitrate : 192 kBit/s
Quality : High
Add ID3 tag : No
Command line compressor : C:\Program Files\Exact Audio Copy\Flac\flac.exe
Additional command line options : -8 -V -T "ARTIST=%a" -T "TITLE=%t" -T "ALBUM=%g" -T "DATE=%y" -T "TRACKNUMBER=%n" -T "GENRE=%m" -T "COMMENT=EAC FLAC -8" %s

TOC of the extracted CD Track | Start | Length | Start sector | End sector
--1 | 0:00.00 | 4:44.24 | 0 | 21323 2 | 4:44.24 | 2:38.62 | 21324 | 33235 3 | 7:23.11 | 3:23.69 | 33236 | 48529 4 | 10:47.05 | 4:12.30 | 48530 | 67459 5 | 14:59.35 | 3:15.43 | 67460 | 82127 6 | 18:15.03 | 3:22.30 | 82128 | 97307 7 | 21:37.33 | 3:08.14 | 97308 | 111421 8 | 24:45.47 | 3:38.02 | 111422 | 127773 9 | 28:23.49 | 1:28.51 | 127774 | 134424
10 | 29:52.25 | 3:18.42 | 134425 | 149316
11 | 33:10.67 | 3:28.02 | 149317 | 164918
12 | 36:38.69 | 1:20.19 | 164919 | 170937
13 | 37:59.13 | 0:55.17 | 170938 | 175079
14 | 38:54.30 | 3:14.07 | 175080 | 189636
15 | 42:08.37 | 1:26.43 | 189637 | 196129
16 | 43:35.05 | 4:54.05 | 196130 | 218184

Track 1 Filename I:\music\newage\flac\0_inbalance\Zen For Meditation\01-Quil Tanachen - Med Mig Sjalv.wav Pre-gap length 0:00:02.00 Peak level 76.6 %
Extraction speed 2.5 X
Track quality 100.0 %
Test CRC C40B294E
Copy CRC C40B294E
Cannot be verified as accurate (confidence 1) [4EAF59B5], AccurateRip returned [994DC770]
Copy OK

Track 2 Filename I:\music\newage\flac\0_inbalance\Zen For Meditation\02-Quil Tanachen - The Time Has Come.wav Peak level 72.7 %
Extraction speed 2.5 X
Track quality 100.0 %
Test CRC 1B9832A5
Copy CRC 1B9832A5
Cannot be verified as accurate (confidence 1) [A4BBFD78], AccurateRip returned [33288B49]
Copy OK

Track 3 Filename I:\music\newage\flac\0_inbalance\Zen For Meditation\03-Quil Tanachen - First Find an Angel.wav Peak level 86.2 %
Extraction speed 2.7 X
Track quality 100.0 %
Test CRC 03AF0EB5
Copy CRC 03AF0EB5
Cannot be verified as accurate (confidence 1) [8A90E4FE], AccurateRip returned C4AEB5F
Copy OK

Track 4 Filename I:\music\newage\flac\0_inbalance\Zen For Meditation\04-Quil Tanachen - The Glass Bead Game.wav Peak level 57.6 %
Extraction speed 3.0 X
Track quality 100.0 %
Test CRC B652B1EC
Copy CRC B652B1EC
Cannot be verified as accurate (confidence 1) [A4B25574], AccurateRip returned [DC86CCF8]
Copy OK

Track 5 Filename I:\music\newage\flac\0_inbalance\Zen For Meditation\05-Quil Tanachen - Who Will Cry.wav Peak level 73.2 %
Extraction speed 2.7 X
Track quality 99.9 %
Test CRC 6290F46B
Copy CRC 6290F46B
Cannot be verified as accurate (confidence 1) [DDD572FC], AccurateRip returned [0B6C020C]
Copy OK

Track 6 Filename I:\music\newage\flac\0_inbalance\Zen For Meditation\06-Quil Tanachen - Rain 1.wav Peak level 81.0 %
Extraction speed 3.3 X
Track quality 100.0 %
Test CRC ACB97908
Copy CRC ACB97908
Cannot be verified as accurate (confidence 1) [93C520B3], AccurateRip returned [7E215CBD]
Copy OK

Track 7 Filename I:\music\newage\flac\0_inbalance\Zen For Meditation\07-Quil Tanachen - Moontide.wav Peak level 72.1 %
Extraction speed 3.4 X
Track quality 100.0 %
Test CRC 17AE363F
Copy CRC 17AE363F
Cannot be verified as accurate (confidence 1) [F27AF7CF], AccurateRip returned [8D031116]
Copy OK

Track 8 Filename I:\music\newage\flac\0_inbalance\Zen For Meditation\08-Quil Tanachen - The Village.wav Peak level 78.7 %
Extraction speed 3.4 X
Track quality 100.0 %
Test CRC 795556D7
Copy CRC 795556D7
Cannot be verified as accurate (confidence 1) [DE4A9247], AccurateRip returned [349F738C]
Copy OK

Track 9 Filename I:\music\newage\flac\0_inbalance\Zen For Meditation\09-Quil Tanachen - Sowena.wav Peak level 38.0 %
Extraction speed 2.1 X
Track quality 99.8 %
Test CRC 4135523B
Copy CRC 4135523B
Cannot be verified as accurate (confidence 1) [77F3C449], AccurateRip returned [978DDBAA]
Copy OK

Track 10 Filename I:\music\newage\flac\0_inbalance\Zen For Meditation\10-Quil Tanachen - The Shroud.wav Peak level 92.1 %
Extraction speed 2.9 X
Track quality 99.9 %
Test CRC 62247D2D
Copy CRC 62247D2D
Cannot be verified as accurate (confidence 1) [84D5C221], AccurateRip returned [93C01A82]
Copy OK

Track 11 Filename I:\music\newage\flac\0_inbalance\Zen For Meditation\11-Quil Tanachen - Fantasie 1.wav Peak level 100.0 %
Extraction speed 3.3 X
Track quality 100.0 %
Test CRC 5F469A9F
Copy CRC 5F469A9F
Cannot be verified as accurate (confidence 1) [93033293], AccurateRip returned [0CD3DEFC]
Copy OK

Track 12 Filename I:\music\newage\flac\0_inbalance\Zen For Meditation\12-Quil Tanachen - Fantasie 2.wav Peak level 79.4 %
Extraction speed 2.6 X
Track quality 100.0 %
Test CRC F353C70D
Copy CRC F353C70D
Cannot be verified as accurate (confidence 1) [D4985365], AccurateRip returned [9576B30D]
Copy OK

Track 13 Filename I:\music\newage\flac\0_inbalance\Zen For Meditation\13-Quil Tanachen - Fantasie 3.wav Peak level 71.5 %
Extraction speed 2.4 X
Track quality 100.0 %
Test CRC 0B237189
Copy CRC 0B237189
Cannot be verified as accurate (confidence 1) [FA952E3D], AccurateRip returned [19C27061]
Copy OK

Track 14 Filename I:\music\newage\flac\0_inbalance\Zen For Meditation\14-Quil Tanachen - Knots.wav Peak level 46.9 %
Extraction speed 3.3 X
Track quality 100.0 %
Test CRC 17085865
Copy CRC 17085865
Cannot be verified as accurate (confidence 1) [02CE83FD], AccurateRip returned [53B5AA8C]
Copy OK

Track 15 Filename I:\music\newage\flac\0_inbalance\Zen For Meditation\15-Quil Tanachen - Rain 2.wav Peak level 61.7 %
Extraction speed 2.6 X
Track quality 100.0 %
Test CRC 74D5B796
Copy CRC 74D5B796
Cannot be verified as accurate (confidence 1) [7705A973], AccurateRip returned [D49381E8]
Copy OK

Track 16 Filename I:\music\newage\flac\0_inbalance\Zen For Meditation\16-Quil Tanachen - Nasrudin.wav Peak level 87.2 %
Extraction speed 3.5 X
Track quality 100.0 %
Test CRC 7D0E355D
Copy CRC 7D0E355D
Cannot be verified as accurate (confidence 1) [424C7F43], AccurateRip returned [C90093C7]
Copy OK

No tracks could be verified as accurate
You may have a different pressing from the one(s) in the database

No errors occurred

End of status report

==== Log checksum FDCC3ADA90A7E5D6EB748264DBC884D92C02603B8D4F1D61A9F7A73E886C5101 ====

[CUETools log; Date: 20.11.2015 17:21:12; Version: 2.1.4]
[CTDB TOCID: ErgXlqYJqO9nDbof8YqigLkOBbU-] disk not present in database.
[AccurateRip ID: 001e54e5-01624ebe-e60b5d10] found.
Track [ CRC | V2 ] Status
01 [4eaf59b5|8dedf601] (0+0/2) No match
02 [a4bbfd78|271231c4] (0+0/2) No match
03 [8a90e4fe|9d748515] (0+0/2) No match
04 [a4b25574|a365035b] (0+0/2) No match
05 [ddd572fc|ef861d47] (0+0/2) No match
06 [93c520b3|6c636a3c] (0+0/2) No match
07 [f27af7cf|38738ecb] (0+0/2) No match
08 [de4a9247|5ddd472c] (0+0/2) No match
09 [77f3c449|8c67e347] (0+0/2) No match
10 [84d5c221|87c2915c] (0+0/2) No match
11 [93033293|99ac621c] (0+0/2) No match
12 [d4985365|3e5a029a] (0+0/2) No match
13 [fa952e3d|0b65df46] (0+0/2) No match
14 [02ce83fd|c5054eec] (0+0/2) No match
15 [7705a973|cc67e3c9] (0+0/2) No match
16 [424c7f43|37897f81] (0+0/2) No match
Offsetted by -1415:
01 [994dc770] (1/2) Accurately ripped
02 [33288b49] (1/2) Accurately ripped
03 c4aeb5f (1/2) Accurately ripped
04 [dc86ccf8] (1/2) Accurately ripped
05 [0b6c020c] (1/2) Accurately ripped
06 [7e215cbd] (1/2) Accurately ripped
07 [8d031116] (1/2) Accurately ripped
08 [349f738c] (1/2) Accurately ripped
09 [978ddbaa] (1/2) Accurately ripped
10 [93c01a82] (1/2) Accurately ripped
11 [0cd3defc] (1/2) Accurately ripped
12 [9576b30d] (1/2) Accurately ripped
13 [19c27061] (1/2) Accurately ripped
14 [53b5aa8c] (1/2) Accurately ripped
15 [d49381e8] (1/2) Accurately ripped
16 [c90093c7] (1/2) Accurately ripped
Offsetted by -748:
01 [1e8bcae2] (1/2) Accurately ripped
02 [2eb8b93b] (1/2) Accurately ripped
03 [47dc4132] (1/2) Accurately ripped
04 [3e51de44] (1/2) Accurately ripped
05 [71800a3c] (1/2) Accurately ripped
06 ccc17bb (1/2) Accurately ripped
07 [a8f0ddbb] (1/2) Accurately ripped
08 [756756cb] (1/2) Accurately ripped
09 [4fab147d] (1/2) Accurately ripped
10 [83dac655] (1/2) Accurately ripped
11 6d24c67 (1/2) Accurately ripped
12 [7e369585] (1/2) Accurately ripped
13 [4e2f2f8d] (1/2) Accurately ripped
14 [3588c089] (1/2) Accurately ripped
15 [785a3bb7] (1/2) Accurately ripped
16 c866c13 (1/2) Accurately ripped

Track Peak [ CRC32 ] [W/O NULL] [ LOG ]
-- 100,0 [212085B7] [2DD1BD41]
01 76,6 [C40B294E] [C0BA7A74] CRC32
02 72,7 [1B9832A5] [5C02BAA3] CRC32
03 86,2 [03AF0EB5] [6622DB85] CRC32
04 57,6 652B1EC [88D149CD] CRC32
05 73,2 [6290F46B] [53267C1F] CRC32
06 81,0 [ACB97908] [7348EB43] CRC32
07 72,1 [17AE363F] [CDF29FD4] CRC32
08 78,7 [795556D7] [E53C7C1B] CRC32
09 38,0 [4135523B] [646A57B5] CRC32
10 92,1 [62247D2D] [03F0BF59] CRC32
11 100,0 [5F469A9F] [625AF4D1] CRC32
12 79,4 [F353C70D] [136B4E30] CRC32
13 71,5 [0B237189] 04C412D CRC32
14 46,9 [17085865] [492BCBEC] CRC32
15 61,7 [74D5B796] [3A380A0F] CRC32
16 87,2 [7D0E355D] [A210468C] CRC32

Thanks to loh27

See also:
DOWNLOAD:
Buy Premium From My Links To Get Resumable Support & Max Speed & To Support Me


Links are Interchangeable - No Password

Direct Download

Tags: Tanachen, Albums

Quil Tanachen - 3 Albums (2001) Download via Hotfile Rapidshare Fileserve Megaupload & FileSonic, Quil Tanachen - 3 Albums (2001) free torrent downloads included crack, serial, keygen.


Attention!Information

Members of Guest cannot leave comments.