Paul Mauriat - Goodbye My Love, Goodbye & Viens Ce Soir (2015)

Download Now

Paul Mauriat - Goodbye My Love, Goodbye & Viens Ce Soir (2015)

Paul Mauriat - Goodbye My Love, Goodbye & Viens Ce Soir (2015)
EAC Rip | FLAC (Img) + Cue + Log ~ 463 Mb | MP3 CBR320 ~ 186 Mb
Scans (JPG, 600 dpi) ~ 58 Mb | RAR 5% Recovery
Easy Listening | Vocalion Ltd #CDLK 4568

"Collects the original 1973 and 1974 albums from the French orchestra leader, together on one CD with two rare bonus tracks! Includes covers of Stevie Wonder's "You Are The Sunshine Of My Life" and Barbra Streisand's "The Way We Were". French composer/conductor Paul Mauriat is a classically trained musician who decided to pursue a career in popular music. His first major success came in 1962, as a co-writer of the European hit "Chariot." In 1963, the song was given English lyrics, renamed "I Will Follow Him," and became a number one American hit for Little Peggy March. Mauriat is best remembered for his 1968 worldwide smash "Love Is Blue"..."

Paul Mauriat - Goodbye My Love, Goodbye & Viens Ce Soir (2015)

Wiki | Discogs | All Music
***************

Paul Mauriat - Goodbye My Love, Goodbye & Viens Ce Soir (2015)

Track List:

Goodbye My Love, Goodbye (1973)
01. Goodbye My Love, Goodbye [0:03:14.52]
02. J'ai un Probleme [0:03:03.36]
03. You are the Sunshine of My Life [0:02:47.27]
04. The Morning After [0:02:19.73]
05. Jeux Interdits [0:03:23.22]
06. La Maladie D'amour [0:02:50.47]
07. Vado Via [0:03:03.17]
08. Sonia [0:02:29.26]
09. Yesterday Once More [0:03:48.58]
10. Petit Oiseau Mecanique [0:02:45.11]
11. Say, Has Anybody Seen My Sweet Gypsy Rose ? [0:02:26.42]
12. Tout Donne, Tout Repris [0:02:46.61]
Viens Ce Soir (1974)
13. Viens se Soir [0:03:44.47]
14. Melancolie (Melody Lady) [0:02:54.32]
15. Les Divorces [0:03:14.27]
16. The Way We Were [0:02:30.10]
17. I Shall Sing (Chacun sa Chanson) [0:02:50.01]
18. Someday, Somewhere [0:02:38.33]
19. Lady Lay [0:02:41.09]
20. Les Vieux Maries [0:03:11.56]
21. La Fete [0:02:34.31]
22. Le Piano sur La Vague [0:03:29.17]
23. Papillon (Toi Qui Regarde La Mer) [0:02:27.53]
24. La Paloma [0:03:07.20]
Bonus Tracks
25. I Won't Last a Day Without You (mixing session part 1) [0:03:39.72]
26. I Won't Last a Day Without You (mixing session part 2) [0:03:29.04]

Exact Audio Copy V1.0 beta 3 from 29. August 2011

EAC extraction logfile from 6. October 2015, 21:46

Paul Mauriat / Goodbye My Love, Goodbye & Viens Ce Soir

Used drive : PLEXTOR DVDR PX-L890SA Adapter: 3 ID: 1

Read mode : Secure
Utilize accurate stream : Yes
Defeat audio cache : Yes
Make use of C2 pointers : No

Read offset correction

: 6
Overread into Lead-In and Lead-Out : No
Fill up missing offset samples with silence : Yes
Delete leading and trailing silent blocks : No
Null samples used in CRC calculations : Yes
Used interface
: Native Win32 interface for Win NT & 2000

Used output format : User Defined Encoder
Selected bitrate : 768 kBit/s
Quality : High
Add ID3 tag : No
Command line compressor : C:\Program Files (x86)\Exact Audio Copy\Flac\flac.exe
Additional command line options : -V -8 -T "Date=%year%" -T "Genre=%genre%" %source%

TOC of the extracted CD Track | Start | Length | Start sector | End sector
--1 | 0:01.00 | 3:14.52 | 75 | 14676 2 | 3:15.52 | 3:03.36 | 14677 | 28437 3 | 6:19.13 | 2:47.27 | 28438 | 40989 4 | 9:06.40 | 2:19.73 | 40990 | 51487 5 | 11:26.38 | 3:23.22 | 51488 | 66734 6 | 14:49.60 | 2:50.47 | 66735 | 79531 7 | 17:40.32 | 3:03.17 | 79532 | 93273 8 | 20:43.49 | 2:29.26 | 93274 | 104474 9 | 23:13.00 | 3:48.58 | 104475 | 121632
10 | 27:01.58 | 2:45.11 | 121633 | 134018
11 | 29:46.69 | 2:26.42 | 134019 | 145010
12 | 32:13.36 | 2:46.61 | 145011 | 157521
13 | 35:00.22 | 3:44.47 | 157522 | 174368
14 | 38:44.69 | 2:54.32 | 174369 | 187450
15 | 41:39.26 | 3:14.27 | 187451 | 202027
16 | 44:53.53 | 2:30.10 | 202028 | 213287
17 | 47:23.63 | 2:50.01 | 213288 | 226038
18 | 50:13.64 | 2:38.33 | 226039 | 237921
19 | 52:52.22 | 2:41.09 | 237922 | 250005
20 | 55:33.31 | 3:11.56 | 250006 | 264386
21 | 58:45.12 | 2:34.31 | 264387 | 275967
22 | 61:19.43 | 3:29.17 | 275968 | 291659
23 | 64:48.60 | 2:27.53 | 291660 | 302737
24 | 67:16.38 | 3:07.20 | 302738 | 316782
25 | 70:23.58 | 3:39.72 | 316783 | 333279
26 | 74:03.55 | 3:29.04 | 333280 | 348958

Range status and errors

Selected range Filename H:\MUSIC\mauriat\2015. Paul Mauriat - Goodbye My Love, Goodbye & Viens Ce Soir (Vocalion CDLK 4568, Austria)\Paul Mauriat - Goodbye My Love, Goodbye & Viens Ce Soir.wav Peak level 100.0 %
Extraction speed 10.1 X
Range quality 100.0 %
Test CRC 2F545BE6
Copy CRC 2F545BE6
Copy OK

No errors occurred


AccurateRip summary

Track 1 not present in database
Track 2 not present in database
Track 3 not present in database
Track 4 not present in database
Track 5 not present in database
Track 6 not present in database
Track 7 not present in database
Track 8 not present in database
Track 9 not present in database
Track 10 not present in database
Track 11 not present in database
Track 12 not present in database
Track 13 not present in database
Track 14 not present in database
Track 15 not present in database
Track 16 not present in database
Track 17 not present in database
Track 18 not present in database
Track 19 not present in database
Track 20 not present in database
Track 21 not present in database
Track 22 not present in database
Track 23 not present in database
Track 24 not present in database
Track 25 not present in database
Track 26 not present in database

None of the tracks are present in the AccurateRip database

End of status report

==== Log checksum 74B644C5A7E6CE5A44F7C39AD80977945029DDC4770EA47FE5AB4819C62C799B ====

foobar2000 1.2.6 / Dynamic Range Meter 1.1.1
log date: 2015-11-29 17:28:29

Analyzed: Paul Mauriat / Goodbye My Love, Goodbye & Viens Ce Soir

DR Peak RMS Duration Track

DR13 -0.27 dB -15.43 dB 3:15 01-Goodbye My Love, Goodbye
DR11 -0.89 dB -14.48 dB 3:03 02-J'ai un Probleme
DR11 -0.73 dB -14.04 dB 2:47 03-You are the Sunshine of My Life
DR10 -0.37 dB -13.88 dB 2:20 04-The Morning After
DR10 -2.11 dB -14.65 dB 3:23 05-Jeux Interdits
DR12 -1.43 dB -15.67 dB 2:51 06-La Maladie D'amour
DR12 -0.43 dB -16.07 dB 3:03 07-Vado Via
DR11 -1.65 dB -14.40 dB 2:29 08-Sonia
DR12 -0.46 dB -15.55 dB 3:49 09-Yesterday Once More
DR10 -0.73 dB -12.84 dB 2:45 10-Petit Oiseau Mecanique
DR12 -0.99 dB -15.33 dB 2:27 11-Say, Has Anybody Seen My Sweet Gypsy Rose ?
DR12 0.00 dB -14.76 dB 2:47 12-Tout Donne, Tout Repris
DR10 -1.10 dB -14.75 dB 3:45 13-Viens se Soir
DR11 -1.33 dB -15.66 dB 2:54 14-Melancolie (Melody Lady)
DR11 -2.23 dB -15.60 dB 3:14 15-Les Divorces
DR11 -2.26 dB -15.81 dB 2:30 16-The Way We Were
DR11 -2.55 dB -15.70 dB 2:50 17-I Shall Sing (Chacun sa Chanson)
DR11 -1.68 dB -15.42 dB 2:38 18-Someday, Somewhere
DR11 -1.77 dB -15.06 dB 2:41 19-Lady Lay
DR11 -1.06 dB -15.38 dB 3:12 20-Les Vieux Maries
DR12 -1.25 dB -16.41 dB 2:34 21-La Fete
DR10 -2.13 dB -15.47 dB 3:29 22-Le Piano sur La Vague
DR12 -3.03 dB -17.05 dB 2:28 23-Papillon (Toi Qui Regarde La Mer)
DR11 -2.07 dB -15.63 dB 3:07 24-La Paloma
DR16 -3.45 dB -22.90 dB 3:40 25-I Won't Last a Day Without You (mixing session part 1)
DR14 -0.54 dB -20.95 dB 3:29 26-I Won't Last a Day Without You (mixing session part 2)

Number of tracks: 26
Official DR value: DR11

Samplerate: 44100 Hz
Channels: 2
Bits per sample: 16
Bitrate: 795 kbps
Codec: FLAC

[CUETools log; Date: 29.11.2015 17:28:36; Version: 2.1.5]
Pregap length 00:01:00.
[CTDB TOCID: 8tfBhZ0gUwKkSJL9LwlOuPjrAFI-] disk not present in database.
[AccurateRip ID: 004725db-052ef2bf-84122b1a] found.
Track [ CRC | V2 ] Status
01 [e6fafc3b|fc8f6d6d] (0+1/1) Accurately ripped
02 [fc8cf7f7|8aa74ce0] (0+1/1) Accurately ripped
03 [d22fbdb8|d26560b1] (0+1/1) Accurately ripped
04 [5ac44fc4|60c95d38] (0+1/1) Accurately ripped
05 [7fa04322|bb6841a7] (0+1/1) Accurately ripped
06 [f3cf9960|08068d72] (0+1/1) Accurately ripped
07 cb89387|e0f5ab97 (0+1/1) Accurately ripped
08 [e470d30b|ad5651e0] (0+1/1) Accurately ripped
09 [92d773a2|f41e71e2] (0+1/1) Accurately ripped
10 [0fc8d2b9|5a8120f7] (0+1/1) Accurately ripped
11 [ff98226b|9993f6ce] (0+1/1) Accurately ripped
12 [30e3813d|107da0f7] (0+1/1) Accurately ripped
13 [204431e5|10889a01] (0+1/1) Accurately ripped
14 [ff43e358|48d2d99f] (0+1/1) Accurately ripped
15 6856403|f845faf7 (0+1/1) Accurately ripped
16 [fe689228|e7cebfcf] (0+1/1) Accurately ripped
17 [5d50cb6a|eca75538] (0+1/1) Accurately ripped
18 [f4d18b2c|93b0f3e4] (0+1/1) Accurately ripped
19 [7e411397|dffc50cd] (0+1/1) Accurately ripped
20 [75190947|fbca9ed6] (0+1/1) Accurately ripped
21 [083f5964|bdc46c8e] (0+1/1) Accurately ripped
22 [8ddedb40|20337046] (0+1/1) Accurately ripped
23 [5e8a34b6|c69ead9b] (0+1/1) Accurately ripped
24 [16706fa5|2b2b1f80] (0+1/1) Accurately ripped
25 [c861fc91|bc4a90c1] (0+1/1) Accurately ripped
26 [1b84e990|cbb6281e] (0+1/1) Accurately ripped

Track Peak [ CRC32 ] [W/O NULL] [ LOG ]
-- 100,0 [2F545BE6] [DB920618] CRC32
01 96,9 [330E2E3C] [755AFB0B]
02 90,2 [8442F105] [01555127]
03 91,9 [479AA006] [32A740D6]
04 95,7 [6069DE76] [92B7E14C]
05 78,4 [1F4831B2] [AAEA28AD]
06 84,7 [19B84464] [33718DBA]
07 95,1 [D197A2A3] [884805E7]
08 82,7 [96455249] 017F0E6
09 94,8 [56EF9CEA] [FFEA0C29]
10 91,9 [C2EA7ECA] [5320A11E]
11 89,2 [01585A38] [DFBC461B]
12 100,0 [A414FF05] [8CCA1716]
13 88,1 [D42368A5] [915CB456]
14 85,8 [424E7DCD] 4D8C7C8
15 77,3 [FC0B2139] [0A7F0B53]
16 77,0 [03139582] [4EE708C9]
17 74,5 [588F0E82] [847CC3C0]
18 82,3 [9F4640B1] [21164D10]
19 81,5 [ADE85961] [8C239271]
20 88,5 [2DD0FA11] 0EB7EB1
21 86,5 [624CC045] [09B82295]
22 78,2 [6E34BE32] [E9BED1C6]
23 70,5 [90C30AD6] [4A9A862A]
24 78,8 [546A22ED] [E4C56A3B]
25 67,1 [520F5C66] [F605430B]
26 93,9 [5C6F4AA1] [E4E448B6]

Paul Mauriat - Goodbye My Love, Goodbye & Viens Ce Soir (2015)

Paul Mauriat - Goodbye My Love, Goodbye & Viens Ce Soir (2015)


DOWNLOAD LINKS:
Buy Premium To Support Me & Get Resumable Support & Max Speed


Links are Interchangeable - No Password - Single Extraction

Direct Download

Tags: Mauriat, Goodbye, Goodbye

Paul Mauriat - Goodbye My Love, Goodbye & Viens Ce Soir (2015) Download via Hotfile Rapidshare Fileserve Megaupload & FileSonic, Paul Mauriat - Goodbye My Love, Goodbye & Viens Ce Soir (2015) free torrent downloads included crack, serial, keygen.


Attention!Information

Members of Guest cannot leave comments.