Al Di Meola - Electric Rendezvous (1982) {Columbia}

Download Now

Al Di Meola - Electric Rendezvous (1982) {Columbia}

Al Di Meola - Electric Rendezvous (1982) {Columbia}
EAC 1.1 | FLAC Image level 8 | Cue+Log | Full Scans 600dpi | 233MB + 5% Recovery
Genre: Fusion

"Al di Meola's fifth of seven fusion albums as a leader for Columbia is a typically fiery effort, with di Meola joined by keyboardist Jan Hammer, electric bassist Anthony Jackson, drummer Steve Gadd, percussionist Mingo Lewis, and guest spots for flamenco guitarist Paco de Lucía ("Passion, Grace & Fire") and keyboardist Philippe Saisse. This lesser-known effort is easily recommended to fans of rock-ish jazz guitar."

Track List
01. God Bird Change 3:51
02. Electric Rendezvous 7:47
03. Passion, Grace & Fire 5:34
04. Cruisin' 4:16
05. Black Cat Shuffle 3:00
06. Ritmo De La Noche 4:17
07. Somalia 1:40
08. Jewel Inside A Dream 4:02

musicians
Al Di Meola - electric and acoustic guitars
Paco de Lucía - acoustic guitar on "Passion, Grace & Fire"
Anthony Jackson - bass guitar
Jan Hammer - keyboards
Philippe Saisse - keyboards on "Black Cat Shuffle"
Steve Gadd - drums and percussion
James Mingo Lewis - percussion

Produced by Al Di Meola

Exact Audio Copy V1.1 from 23. June 2015

EAC extraction logfile from 8. October 2015, 18:37

Al Di Meola / Electric Rendezvous (CK 37654)

Used drive : HL-DT-STDVDRAM GE20NU11 Adapter: 1 ID: 0

Read mode : Secure
Utilize accurate stream : Yes
Defeat audio cache : Yes
Make use of C2 pointers : No

Read offset correction

: 667
Overread into Lead-In and Lead-Out : No
Fill up missing offset samples with silence : Yes
Delete leading and trailing silent blocks : No
Null samples used in CRC calculations : Yes
Used interface
: Native Win32 interface for Win NT & 2000

Used output format : User Defined Encoder
Selected bitrate : 896 kBit/s
Quality : High
Add ID3 tag : No
Command line compressor : C:\Program Files\EAC 3\Exact Audio Copy\Flac\flac.exe
Additional command line options : -V -8 %source%

TOC of the extracted CD Track | Start | Length | Start sector | End sector
--1 | 0:00.00 | 3:53.60 | 0 | 17534 2 | 3:53.60 | 7:49.72 | 17535 | 52781 3 | 11:43.57 | 5:37.70 | 52782 | 78126 4 | 17:21.52 | 4:16.13 | 78127 | 97339 5 | 21:37.65 | 3:01.40 | 97340 | 110954 6 | 24:39.30 | 4:19.10 | 110955 | 130389 7 | 28:58.40 | 1:39.72 | 130390 | 137886 8 | 30:38.37 | 4:02.03 | 137887 | 156039

Range status and errors

Selected range Filename C:\OdW\Al di Meola (1982) Electric Rendezvous (CK 37654)\Al Di Meola - Electric Rendezvous (CK 37654).wav Peak level 100.0 %
Extraction speed 6.5 X
Range quality 100.0 %
Test CRC 3F8032ED
Copy CRC 3F8032ED
Copy OK

No errors occurred


AccurateRip summary

Track 1 accurately ripped (confidence 16) [80D11351] (AR v2)
Track 2 accurately ripped (confidence 16) [FEB280B0] (AR v2)
Track 3 accurately ripped (confidence 16) [843DDEFB] (AR v2)
Track 4 accurately ripped (confidence 16) [277464C5] (AR v2)
Track 5 accurately ripped (confidence 16) [C9BA2635] (AR v2)
Track 6 accurately ripped (confidence 16) [4E303F55] (AR v2)
Track 7 accurately ripped (confidence 16) [5615FDEF] (AR v2)
Track 8 accurately ripped (confidence 16) [412420BE] (AR v2)

All tracks accurately ripped

End of status report

- CUETools DB Plugin V2.1.6

[CTDB TOCID: dsUi2WXJfQ9AH4n1j9VFSkzO9hs-] found
Submit result: dsUi2WXJfQ9AH4n1j9VFSkzO9hs- has been confirmed
Track | CTDB Status
1 | (21/22) Accurately ripped
2 | (21/22) Accurately ripped
3 | (21/22) Accurately ripped
4 | (20/22) Accurately ripped
5 | (20/22) Accurately ripped
6 | (21/22) Accurately ripped
7 | (21/22) Accurately ripped
8 | (21/22) Accurately ripped

==== Log checksum 58E6129EC60AE65AA0EF37010A235EE4F0C4EC5B7866836665DE5C268C56C0B9 ====

Analyzed: Al Di Meola / Electric Rendezvous

DR Peak RMS Duration Track

DR13 0.00 dB -14.58 dB 3:54 01-God Bird Change
DR12 -0.21 dB -15.43 dB 7:50 02-Electric Rendezvous
DR14 -2.37 dB -20.07 dB 5:38 03-Passion, Grace & Fire
DR13 0.00 dB -14.87 dB 4:16 04-Cruisin'
DR13 -0.57 dB -15.08 dB 3:02 05-Black Cat Shuffle
DR13 0.00 dB -15.90 dB 4:19 06-Ritmo De La Noche
DR11 -6.71 dB -21.60 dB 1:40 07-Somalia
DR11 -5.68 dB -21.80 dB 4:02 08-Jewel Inside A Dream

Number of tracks: 8
Official DR value: DR13

Samplerate: 44100 Hz
Channels: 2
Bits per sample: 16
Bitrate: 818 kbps
Codec: FLAC

Al Di Meola - Electric Rendezvous (1982) {Columbia}

Al Di Meola - Electric Rendezvous (1982) {Columbia}

Al Di Meola - Electric Rendezvous (1982) {Columbia}



DOWNLOAD LINKS:
(Premium Recommended)


All above links are interchangable. No password

Direct Download

Tags: Electric, Rendezvous, Columbia

Al Di Meola - Electric Rendezvous (1982) {Columbia} Download via Hotfile Rapidshare Fileserve Megaupload & FileSonic, Al Di Meola - Electric Rendezvous (1982) {Columbia} free torrent downloads included crack, serial, keygen.


Attention!Information

Members of Guest cannot leave comments.